<?xml version="1.0" standalone="no"?>
<!DOCTYPE svg PUBLIC "-//W3C//DTD SVG 1.1//EN" "http://www.w3.org/Graphics/SVG/1.1/DTD/svg11.dtd" >
<svg xmlns="http://www.w3.org/2000/svg">
<metadata>Generated by IcoMoon</metadata>
<defs>
<font id="icons" horiz-adv-x="1024">
<font-face units-per-em="1024" ascent="960" descent="-64" />
<missing-glyph horiz-adv-x="1024" />
<glyph unicode="&#x20;" horiz-adv-x="512" d="" />
<glyph unicode="&#xe900;" glyph-name="link1" d="M392.491 358.443c42.325-56.619 103.68-90.709 168.448-100.053s133.248 6.059 189.867 48.384c10.197 7.637 19.84 16 27.947 24.235l127.787 127.787c49.621 51.371 73.472 117.376 72.363 182.827s-27.264 130.603-78.123 179.669c-50.005 48.299-114.688 72.192-179.157 71.808-63.659-0.341-127.317-24.363-176.512-71.808l-73.856-73.429c-16.725-16.597-16.811-43.648-0.171-60.331s43.648-16.811 60.331-0.171l72.917 72.491c32.853 31.659 75.221 47.659 117.76 47.915 43.051 0.256 86.016-15.659 119.381-47.872 33.92-32.768 51.328-76.075 52.096-119.808s-15.147-87.637-47.36-121.003l-128.213-128.213c-4.864-4.949-11.221-10.539-18.261-15.787-37.76-28.245-83.285-38.485-126.592-32.256s-84.096 28.928-112.299 66.688c-14.123 18.859-40.832 22.741-59.733 8.619s-22.741-40.832-8.619-59.733zM631.509 494.891c-42.325 56.619-103.68 90.709-168.448 100.053s-133.291-6.059-189.909-48.384c-10.197-7.637-19.797-16-27.947-24.235l-127.787-127.787c-49.621-51.371-73.472-117.376-72.363-182.827s27.264-130.603 78.123-179.669c50.005-48.299 114.688-72.192 179.157-71.808 63.659 0.341 127.317 24.363 176.512 71.808l73.515 73.515c16.683 16.683 16.683 43.691 0 60.331s-43.691 16.683-60.331 0l-72.363-72.448c-32.853-31.659-75.221-47.659-117.76-47.915-43.051-0.256-86.016 15.659-119.381 47.872-33.92 32.768-51.328 76.075-52.096 119.808s15.147 87.637 47.36 121.003l128.213 128.213c4.864 4.949 11.221 10.539 18.261 15.787 37.76 28.245 83.285 38.485 126.592 32.256s84.096-28.928 112.299-66.688c14.123-18.859 40.832-22.741 59.733-8.619s22.741 40.832 8.619 59.733z" />
<glyph unicode="&#xe901;" glyph-name="mail" d="M128 600.704l359.552-251.691c14.507-10.027 33.92-10.496 48.939 0l359.509 251.691v-430.037c0-11.605-4.693-22.229-12.587-30.080s-18.475-12.587-30.080-12.587h-682.667c-11.605 0-22.229 4.693-30.080 12.587s-12.587 18.475-12.587 30.080zM42.667 683.392c0-0.427 0-0.853 0-1.28v-511.445c0-35.328 14.507-67.371 37.547-90.453s55.125-37.547 90.453-37.547h682.667c35.328 0 67.371 14.507 90.453 37.547s37.547 55.125 37.547 90.453v511.488c0 0.427 0 0.853 0 1.28-0.213 35.029-14.635 66.773-37.547 89.685-23.083 23.040-55.125 37.547-90.453 37.547h-682.667c-35.328 0-67.371-14.507-90.453-37.547-22.912-22.912-37.333-54.656-37.547-89.728zM891.477 701.696l-379.477-265.6-379.477 265.6c2.048 4.096 4.779 7.808 8.021 11.051 7.893 7.893 18.517 12.587 30.123 12.587h682.667c11.605 0 22.229-4.693 30.080-12.587 3.243-3.243 5.973-6.997 8.021-11.051z" />
<glyph unicode="&#xe902;" glyph-name="map-pin" d="M938.667 512c0 117.803-47.787 224.555-124.971 301.696s-183.893 124.971-301.696 124.971-224.555-47.787-301.696-124.971-124.971-183.893-124.971-301.696c0-24.277 2.261-48.128 6.4-71.509 11.691-66.048 38.357-128.171 71.765-184.32 116.565-195.883 324.821-334.336 324.821-334.336 14.123-9.259 32.64-9.771 47.317 0 0 0 208.299 138.453 324.821 334.336 33.408 56.149 60.075 118.272 71.765 184.32 4.181 23.381 6.443 47.232 6.443 71.509zM853.333 512c0-18.944-1.749-37.845-5.077-56.661-9.429-53.333-31.445-105.728-61.099-155.563-81.579-137.131-214.869-245.205-271.744-287.573-59.648 39.083-195.755 148.352-278.613 287.573-29.653 49.835-51.669 102.229-61.099 155.563-3.285 18.816-5.035 37.717-5.035 56.661 0 94.251 38.144 179.541 99.968 241.365s147.115 99.968 241.365 99.968 179.541-38.144 241.365-99.968 99.968-147.115 99.968-241.365zM682.667 512c0 47.104-19.157 89.856-50.005 120.661s-73.557 50.005-120.661 50.005-89.856-19.157-120.661-50.005-50.005-73.557-50.005-120.661 19.157-89.856 50.005-120.661 73.557-50.005 120.661-50.005 89.856 19.157 120.661 50.005 50.005 73.557 50.005 120.661zM597.333 512c0-23.595-9.515-44.843-25.003-60.331s-36.736-25.003-60.331-25.003-44.843 9.515-60.331 25.003-25.003 36.736-25.003 60.331 9.515 44.843 25.003 60.331 36.736 25.003 60.331 25.003 44.843-9.515 60.331-25.003 25.003-36.736 25.003-60.331z" />
<glyph unicode="&#xe903;" glyph-name="phone-call" d="M633.984 683.478c40.235-7.851 74.24-29.141 98.56-58.624 17.92-21.76 30.549-47.957 36.352-76.501 4.651-23.083 27.179-38.016 50.261-33.365s38.016 27.179 33.365 50.261c-8.533 42.325-27.307 81.365-54.144 113.877-36.437 44.203-87.765 76.331-148.053 88.064-23.125 4.523-45.525-10.581-50.048-33.707s10.581-45.525 33.707-50.048zM637.44 853.59c85.333-9.472 159.701-49.579 213.547-108.544 47.701-52.224 79.275-119.211 87.979-192.811 2.773-23.381 23.979-40.149 47.36-37.376s40.149 23.979 37.376 47.36c-10.795 91.605-50.176 175.189-109.696 240.384-67.328 73.728-160.512 123.989-267.136 135.808-23.424 2.603-44.501-14.293-47.104-37.675s14.293-44.501 37.675-47.104zM981.333 216.747c0.683 30.464-10.069 59.904-28.715 82.901-19.627 24.149-48.171 41.259-82.133 46.080-34.133 4.181-72.32 13.397-110.336 27.563-18.475 6.784-38.101 9.301-57.344 7.424-28.288-2.731-55.765-14.891-77.611-36.48l-30.72-30.72c-75.52 47.659-143.36 113.792-195.541 195.797l30.976 30.976c13.739 14.080 24.021 30.976 30.165 49.323 9.045 26.965 9.131 57.003-1.664 85.803-12.331 32.128-22.101 70.144-27.477 110.72-4.437 30.464-19.456 57.387-41.088 76.971-22.997 20.736-53.589 33.237-86.485 32.896h-127.829c-3.755 0-7.765-0.171-11.648-0.512-35.157-3.2-65.792-20.395-86.741-45.483s-32.341-58.325-29.141-93.824c12.8-131.243 58.24-266.368 137.216-388.352 64.085-102.955 155.648-197.248 268.715-269.056 109.568-72.405 242.517-122.112 387.669-137.856 3.925-0.384 8.149-0.555 12.288-0.555 35.328 0.128 67.328 14.635 90.368 37.845s37.248 55.339 37.12 90.496zM896 216.747v-128c0.043-11.947-4.651-22.613-12.373-30.379s-18.304-12.587-30.123-12.629c-134.357 14.336-254.336 59.349-352.555 124.245-103.595 65.835-185.984 150.912-243.285 242.944-72.405 111.787-113.28 233.856-124.757 351.488-1.024 11.435 2.731 22.443 9.771 30.891s17.195 14.080 28.928 15.147l131.755 0.213c11.563 0.128 21.632-4.011 29.312-10.923 7.253-6.571 12.288-15.616 13.781-25.941 6.059-45.739 17.408-90.325 32.299-129.067 3.456-9.216 3.413-19.072 0.427-28.075-2.091-6.187-5.589-11.989-10.325-16.853l-53.845-53.803c-13.824-13.824-16.171-34.731-6.912-51.243 67.584-118.827 163.797-211.499 272.256-272.128 16.939-9.472 37.632-6.144 50.987 7.083l54.187 54.187c7.083 6.997 16.085 10.965 25.515 11.904 6.485 0.64 13.227-0.213 19.584-2.56 43.605-16.256 88.32-27.136 129.451-32.171 10.283-1.451 19.712-7.083 26.24-15.147 6.272-7.723 9.856-17.579 9.643-29.099z" />
<glyph unicode="&#xe904;" glyph-name="clear" d="M810 664.667l-238-238 238-238-60-60-238 238-238-238-60 60 238 238-238 238 60 60 238-238 238 238z" />
<glyph unicode="&#xe905;" glyph-name="file-history" d="M312.837 90.352q-22.187 0-37.508 15.319t-15.319 37.508v105.656h146.336v171.693q-50.293-10.566-103.069 3.222-52.775 13.734-87.113 48.443v74.33h-75.016l-147.233 147.337q45.539 41.418 103.332 61.968 57.793 20.497 118.969 20.497 50.874 0 98.79-14.422t91.392-45.168v96.992h528.283v-617.669q0-44.693-30.483-75.175t-75.175-30.483zM459.171 248.837h316.969v-52.829q0-22.399 15.215-37.614t37.614-15.161q22.452 0 37.667 15.161t15.161 37.667v564.84h-422.626v-84.526l290.557-290.557v-37.402h-37.402l-160.704 160.758-29.849-29.9q-15.478-15.427-30.325-25.887-14.898-10.459-32.277-18.385zM163.755 599.406h105.234v-103.386q27.047-16.694 50.293-22.716 23.245-5.969 44.797-5.969 36.451 0 65.983 12.309t55.311 38.090l28.844 28.844-92.239 92.291q-42.369 42.315-94.985 63.499t-110.834 21.184q-38.565 0-75.068-10.038-36.451-10.038-65.349-26.098z" />
<glyph unicode="&#xe906;" glyph-name="play_arrow" d="M342 724.667l468-298-468-298v596z" />
<glyph unicode="&#xe907;" glyph-name="play_circle" d="M426 234.667l256 192-256 192v-384zM512 852.667q176 0 301-125t125-301-125-301-301-125-301 125-125 301 125 301 301 125z" />
<glyph unicode="&#xe908;" glyph-name="menu" d="M941.292 528.492c0 14.818-12.014 26.83-26.83 26.83v0h-606.806c-14.818 0-26.83-12.014-26.83-26.83s12.014-26.83 26.83-26.83v0h606.806c14.818 0 26.83 12.014 26.83 26.83v0zM941.292 743.138c0 14.818-12.014 26.83-26.83 26.83v0h-804.924c-14.818 0-26.83-12.014-26.83-26.83s12.014-26.83 26.83-26.83v0h804.924c14.818 0 26.83 12.014 26.83 26.83v0zM941.292 313.846c0 14.818-12.014 26.83-26.83 26.83v0h-804.924c-14.818 0-26.83-12.014-26.83-26.83s12.014-26.83 26.83-26.83v0h804.924c14.818 0 26.83 12.014 26.83 26.83v0zM941.292 99.2c0 14.818-12.014 26.83-26.83 26.83v0h-606.806c-14.818 0-26.83-12.014-26.83-26.83s12.014-26.83 26.83-26.83v0h606.806c14.818 0 26.83 12.014 26.83 26.83v0z" />
<glyph unicode="&#xe909;" glyph-name="newspaper" d="M896 704v128h-896v-704c0-35.346 28.654-64 64-64h864c53.022 0 96 42.978 96 96v544h-128zM832 128h-768v640h768v-640zM128 640h640v-64h-640zM512 512h256v-64h-256zM512 384h256v-64h-256zM512 256h192v-64h-192zM128 512h320v-320h-320z" />
<glyph unicode="&#xe90a;" glyph-name="menu-list" d="M85.6 776h852.8c18.115 0 32.8-14.685 32.8-32.8s-14.685-32.8-32.8-32.8v0h-852.8c-18.115 0-32.8 14.685-32.8 32.8s14.685 32.8 32.8 32.8v0zM938.4 415.2h-426.4c-18.115 0-32.8 14.685-32.8 32.8s14.685 32.8 32.8 32.8v0h426.4c18.115 0 32.8-14.685 32.8-32.8s-14.685-32.8-32.8-32.8v0zM216.8 185.6h721.6c18.115 0 32.8-14.685 32.8-32.8s-14.685-32.8-32.8-32.8v0h-721.6c-18.115 0-32.8 14.685-32.8 32.8s14.685 32.8 32.8 32.8v0z" />
<glyph unicode="&#xe90c;" glyph-name="messenger" d="M0 463.36c0 285.44 223.573 496.64 512 496.64s512-211.2 512-496.64-223.573-496.64-512-496.64c-51.627 0-101.547 6.827-148.053 19.627-3.193 0.894-6.86 1.408-10.647 1.408-6.032 0-11.76-1.304-16.917-3.646l0.257 0.104-101.973-44.8c-4.899-2.236-10.625-3.54-16.656-3.54-22.216 0-40.301 17.686-40.942 39.747l-0.001 0.059-2.987 91.307c-0.5 11.541-5.653 21.787-13.617 28.981l-0.036 0.032c-98.714 89.298-160.47 217.866-160.47 360.857 0 2.286 0.016 4.569 0.047 6.848l-0.004-0.345zM354.987 556.8l-150.187-238.933c-14.933-22.613 13.653-48.64 34.987-32l161.707 122.453c11.093 8.533 25.6 8.533 37.12 0l119.467-89.6c35.84-26.88 87.040-17.067 110.933 20.48l150.187 238.933c14.933 22.613-13.653 48.213-34.987 32l-161.707-122.453c-10.667-8.533-25.6-8.533-36.693 0l-119.467 89.6c-12.716 9.688-28.823 15.521-46.293 15.521-27.292 0-51.26-14.236-64.881-35.688l-0.186-0.313z" />
<glyph unicode="&#xe938;" glyph-name="message-circle" d="M813.653 749.653c-77.308 77.798-184.37 125.951-302.679 125.951-235.641 0-426.667-191.025-426.667-426.667 0-60.948 12.779-118.912 35.805-171.357l-1.073 2.74c2.834-5.743 4.493-12.504 4.493-19.652 0-2.705-0.237-5.354-0.692-7.927l0.040 0.272-37.547-180.48c-0.574-2.625-0.903-5.639-0.903-8.731 0-11.745 4.746-22.382 12.425-30.097l-0.002 0.002c7.71-7.656 18.332-12.387 30.060-12.387 0.382 0 0.763 0.005 1.143 0.015l-0.056-0.001h8.533l182.613 36.693c1.927 0.245 4.156 0.384 6.417 0.384 7.543 0 14.724-1.554 21.239-4.358l-0.349 0.134c49.706-21.953 107.67-34.732 168.618-34.732 235.641 0 426.667 191.025 426.667 426.667 0 118.309-48.153 225.371-125.929 302.657l-0.022 0.022zM341.333 405.333c-23.564 0-42.667 19.103-42.667 42.667s19.103 42.667 42.667 42.667c23.564 0 42.667-19.103 42.667-42.667v0c0-23.564-19.103-42.667-42.667-42.667v0zM512 405.333c-23.564 0-42.667 19.103-42.667 42.667s19.103 42.667 42.667 42.667c23.564 0 42.667-19.103 42.667-42.667v0c0-23.564-19.103-42.667-42.667-42.667v0zM682.667 405.333c-23.564 0-42.667 19.103-42.667 42.667s19.103 42.667 42.667 42.667c23.564 0 42.667-19.103 42.667-42.667v0c0-23.564-19.103-42.667-42.667-42.667v0z" />
<glyph unicode="&#xe942;" glyph-name="phone" d="M704 320c-64-64-64-128-128-128s-128 64-192 128-128 128-128 192 64 64 128 128-128 256-192 256-192-192-192-192c0-128 131.5-387.5 256-512s384-256 512-256c0 0 192 128 192 192s-192 256-256 192z" />
<glyph unicode="&#xe945;" glyph-name="email2" d="M928 832h-832c-52.8 0-96-43.2-96-96v-640c0-52.8 43.2-96 96-96h832c52.8 0 96 43.2 96 96v640c0 52.8-43.2 96-96 96zM398.74 409.628l-270.74-210.892v501.642l270.74-290.75zM176.38 704h671.24l-335.62-252-335.62 252zM409.288 398.302l102.712-110.302 102.71 110.302 210.554-270.302h-626.528l210.552 270.302zM625.26 409.628l270.74 290.75v-501.642l-270.74 210.892z" />
<glyph unicode="&#xe948;" glyph-name="location2" d="M512 960c-176.732 0-320-143.268-320-320 0-320 320-704 320-704s320 384 320 704c0 176.732-143.27 320-320 320zM512 444c-108.248 0-196 87.752-196 196s87.752 196 196 196 196-87.752 196-196-87.752-196-196-196zM388 640c0 68.483 55.517 124 124 124s124-55.517 124-124c0-68.483-55.517-124-124-124s-124 55.517-124 124z" />
<glyph unicode="&#xe957;" glyph-name="business" d="M768 298.667v-86h-86v86h86zM768 468.667v-84h-86v84h86zM854 128.667v426h-342v-86h86v-84h-86v-86h86v-86h-86v-84h342zM426 640.667v84h-84v-84h84zM426 468.667v86h-84v-86h84zM426 298.667v86h-84v-86h84zM426 128.667v84h-84v-84h84zM256 640.667v84h-86v-84h86zM256 468.667v86h-86v-86h86zM256 298.667v86h-86v-86h86zM256 128.667v84h-86v-84h86zM512 640.667h426v-598h-852v768h426v-170z" />
<glyph unicode="&#xe958;" glyph-name="call" d="M854 282.667q18 0 30-12t12-30v-148q0-50-42-50-298 0-512 214t-214 512q0 42 50 42h148q18 0 30-12t12-30q0-78 24-150 8-26-10-44l-82-72q92-192 294-290l66 84q12 12 30 12 10 0 14-2 72-24 150-24z" />
<glyph unicode="&#xe96b;" glyph-name="location_on" d="M512 448.667q44 0 75 31t31 75-31 75-75 31-75-31-31-75 31-75 75-31zM512 852.667q124 0 211-87t87-211q0-62-31-142t-75-150-87-131-73-97l-32-34q-12 14-32 37t-72 92-91 134-71 147-32 144q0 124 87 211t211 87z" />
<glyph unicode="&#xe971;" glyph-name="bubbles2" horiz-adv-x="1152" d="M480 960v0c265.096 0 480-173.914 480-388.448s-214.904-388.448-480-388.448c-25.458 0-50.446 1.62-74.834 4.71-103.106-102.694-222.172-121.108-341.166-123.814v25.134c64.252 31.354 116 88.466 116 153.734 0 9.106-0.712 18.048-2.030 26.794-108.558 71.214-177.97 179.988-177.97 301.89 0 214.534 214.904 388.448 480 388.448zM996 89.314c0-55.942 36.314-104.898 92-131.772v-21.542c-103.126 2.318-197.786 18.102-287.142 106.126-21.14-2.65-42.794-4.040-64.858-4.040-95.47 0-183.408 25.758-253.614 69.040 144.674 0.506 281.26 46.854 384.834 130.672 52.208 42.252 93.394 91.826 122.414 147.348 30.766 58.866 46.366 121.582 46.366 186.406 0 10.448-0.45 20.836-1.258 31.168 72.57-59.934 117.258-141.622 117.258-231.676 0-104.488-60.158-197.722-154.24-258.764-1.142-7.496-1.76-15.16-1.76-22.966z" />
<glyph unicode="&#xe9c2;" glyph-name="cloud-download" d="M891.004 599.94c-3.242 128.698-108.458 232.060-237.862 232.060-75.792 0-143.266-35.494-186.854-90.732-24.442 31.598-62.69 51.96-105.708 51.96-73.81 0-133.642-59.876-133.642-133.722 0-6.436 0.48-12.76 1.364-18.954-11.222 2.024-22.766 3.138-34.57 3.138-106.998 0.002-193.732-86.786-193.732-193.842 0-107.062 86.734-193.848 193.73-193.848h91.76l226.51-234.51 226.51 234.51 111.482 0.012c96.138 0.184 174.008 78.21 174.008 174.446 0 82.090-56.678 150.9-132.996 169.482zM512 128l-192 192h128v192h128v-192h128l-192-192z" />
<glyph unicode="&#xe9c7;" glyph-name="download3" d="M736 512l-256-256-256 256h160v384h192v-384zM480 256h-480v-256h960v256h-480zM896 128h-128v64h128v-64z" />
<glyph unicode="&#xea23;" glyph-name="insert_invitation" d="M810 128.667v468h-596v-468h596zM682 896.667h86v-86h42q34 0 60-26t26-60v-596q0-34-26-60t-60-26h-596q-36 0-61 25t-25 61v596q0 34 25 60t61 26h42v86h86v-86h340v86zM726 426.667v-214h-214v214h214z" />
<glyph unicode="&#xea49;" glyph-name="folder_open" d="M854 170.667v426h-684v-426h684zM854 682.667q34 0 59-26t25-60v-426q0-34-25-60t-59-26h-684q-34 0-59 26t-25 60v512q0 34 25 60t59 26h256l86-86h342z" />
<glyph unicode="&#xea4a;" glyph-name="folder_shared" d="M810 212.667v44q0 38-59 61t-111 23-111-23-59-61v-44h340zM640 554.667q-34 0-60-26t-26-60 26-59 60-25 60 25 26 59-26 60-60 26zM854 682.667q34 0 59-26t25-60v-426q0-34-25-60t-59-26h-684q-34 0-59 26t-25 60v512q0 34 25 60t59 26h256l86-86h342z" />
<glyph unicode="&#xea4f;" glyph-name="desktop_mac" d="M896 340.667v428h-768v-428h768zM896 852.667q34 0 60-25t26-59v-512q0-34-26-60t-60-26h-298l84-128v-42h-340v42l84 128h-298q-34 0-60 26t-26 60v512q0 34 26 59t60 25h768z" />
<glyph unicode="&#xea56;" glyph-name="keyboard_arrow_down" d="M316 572.667l196-196 196 196 60-60-256-256-256 256z" />
<glyph unicode="&#xea57;" glyph-name="keyboard_arrow_left" d="M658 230.667l-60-60-256 256 256 256 60-60-196-196z" />
<glyph unicode="&#xea58;" glyph-name="keyboard_arrow_right" d="M366 230.667l196 196-196 196 60 60 256-256-256-256z" />
<glyph unicode="&#xea59;" glyph-name="keyboard_arrow_up" d="M316 280.667l-60 60 256 256 256-256-60-60-196 196z" />
<glyph unicode="&#xea5a;" glyph-name="keyboard_backspace" d="M896 468.667v-84h-604l152-154-60-60-256 256 256 256 60-60-152-154h604z" />
<glyph unicode="&#xea61;" glyph-name="laptop_mac" d="M512 128.667q18 0 30 12t12 30-12 30-30 12-30-12-12-30 12-30 30-12zM170 724.667v-468h684v468h-684zM854 170.667h170q0-34-26-60t-60-26h-852q-34 0-60 26t-26 60h170q-34 0-59 26t-25 60v468q0 34 25 60t59 26h684q34 0 59-26t25-60v-468q0-34-25-60t-59-26z" />
<glyph unicode="&#xea88;" glyph-name="camera_alt" d="M512 212.667q88 0 151 63t63 151-63 151-151 63-151-63-63-151 63-151 151-63zM384 852.667h256l78-84h136q34 0 59-26t25-60v-512q0-34-25-60t-59-26h-684q-34 0-59 26t-25 60v512q0 34 25 60t59 26h136zM376 426.667q0 56 40 96t96 40 96-40 40-96-40-96-96-40-96 40-40 96z" />
<glyph unicode="&#xeaa5;" glyph-name="document-list" d="M624 864h16l192-224v-576.295c0-34.963-28.617-63.705-63.918-63.705h-480.165c-35.408 0-63.918 28.759-63.918 64.235v735.531c0 35.488 28.693 64.235 64.088 64.235h335.912zM608 832h-320.142c-17.595 0-31.858-14.568-31.858-31.855v-736.291c0-17.593 14.551-31.855 31.999-31.855h480.003c17.672 0 31.999 14.238 31.999 31.789v544.211h-128.067c-35.309 0-63.933 28.37-63.933 64.189v159.811zM640 816v-143.719c0-17.828 14.421-32.281 31.896-32.281h118.503l-150.398 176zM480 512v-32h256v32h-256zM320 544h96v-96h-96v96zM352 512v-32h32v32h-32zM320 384h96v-96h-96v96zM352 352v-32h32v32h-32zM480 352v-32h256v32h-256zM320 224h96v-96h-96v96zM352 192v-32h32v32h-32zM480 192v-32h256v32h-256z" />
<glyph unicode="&#xeaa6;" glyph-name="document-search" d="M553.883 255.49c-24.635-19.706-55.883-31.49-89.883-31.49-79.529 0-144 64.471-144 144s64.471 144 144 144c79.529 0 144-64.471 144-144 0-34-11.784-65.248-31.49-89.883l171.136-171.136-22.627-22.627-171.136 171.136zM624 864h16l192-224v-576.295c0-34.963-28.617-63.705-63.918-63.705h-480.165c-35.408 0-63.918 28.759-63.918 64.235v735.531c0 35.488 28.693 64.235 64.088 64.235h335.912zM608 832h-320.142c-17.595 0-31.858-14.568-31.858-31.855v-736.291c0-17.593 14.551-31.855 31.999-31.855h480.003c17.672 0 31.999 14.238 31.999 31.789v544.211h-128.067c-35.309 0-63.933 28.37-63.933 64.189v159.811zM640 816v-143.719c0-17.828 14.421-32.281 31.896-32.281h118.503l-150.398 176zM464 256c61.856 0 112 50.144 112 112s-50.144 112-112 112c-61.856 0-112-50.144-112-112s50.144-112 112-112v0z" />
<glyph unicode="&#xeaa7;" glyph-name="document-cloud" d="M513.134 288h-0.947c-35.45 0-64.187-28.407-64.187-64 0-35.346 28.706-64 64.187-64h319.625c35.45 0 64.187 28.407 64.187 64 0 35.346-28.706 64-64.187 64h-1.413c-7.412 36.516-39.696 64-78.4 64-8.724 0-17.122-1.397-24.983-3.978-17.103 39.971-56.789 67.978-103.017 67.978-61.856 0-112-50.144-112-112 0-5.432 0.387-10.774 1.134-16v0zM736 394.517v0 0c2.809-3.471 5.46-7.076 7.942-10.803 2.661 0.189 5.349 0.285 8.058 0.285 45.721 0 85.043-27.396 102.446-66.668 42.404-10.151 73.554-48.086 73.554-93.332 0-52.911-43.116-96-96.303-96h-95.697v-64.295c0-34.963-28.617-63.705-63.918-63.705h-480.165c-35.408 0-63.918 28.759-63.918 64.235v735.531c0 35.488 28.693 64.235 64.088 64.235h351.912l192-224v-245.483zM704 423.751v184.249h-128.067c-35.309 0-63.933 28.37-63.933 64.189v159.811h-320.142c-17.595 0-31.858-14.568-31.858-31.855v-736.291c0-17.593 14.551-31.855 31.999-31.855h480.003c17.672 0 31.999 14.238 31.999 31.789v64.211h-191.697c-53.531 0-96.303 42.981-96.303 96 0 41.781 26.885 77.438 64.383 90.59 5.421 74.584 67.649 133.41 143.617 133.41 29.602 0 57.118-8.932 80-24.249v0 0zM544 816v-143.719c0-17.828 14.421-32.281 31.896-32.281h118.503l-150.398 176z" />
<glyph unicode="&#xeaa8;" glyph-name="earth" d="M512 960c-282.77 0-512-229.23-512-512s229.23-512 512-512 512 229.23 512 512-229.23 512-512 512zM512-0.002c-62.958 0-122.872 13.012-177.23 36.452l233.148 262.29c5.206 5.858 8.082 13.422 8.082 21.26v96c0 17.674-14.326 32-32 32-112.99 0-232.204 117.462-233.374 118.626-6 6.002-14.14 9.374-22.626 9.374h-128c-17.672 0-32-14.328-32-32v-192c0-12.122 6.848-23.202 17.69-28.622l110.31-55.156v-187.886c-116.052 80.956-192 215.432-192 367.664 0 68.714 15.49 133.806 43.138 192h116.862c8.488 0 16.626 3.372 22.628 9.372l128 128c6 6.002 9.372 14.14 9.372 22.628v77.412c40.562 12.074 83.518 18.588 128 18.588 70.406 0 137.004-16.26 196.282-45.2-4.144-3.502-8.176-7.164-12.046-11.036-36.266-36.264-56.236-84.478-56.236-135.764s19.97-99.5 56.236-135.764c36.434-36.432 85.218-56.264 135.634-56.26 3.166 0 6.342 0.080 9.518 0.236 13.814-51.802 38.752-186.656-8.404-372.334-0.444-1.744-0.696-3.488-0.842-5.224-81.324-83.080-194.7-134.656-320.142-134.656z" />
<glyph unicode="&#xeaaa;" glyph-name="calendar" d="M864-32h-704c-35.328 0-64 28.672-64 64v704c0 35.36 28.672 64 64 64h64v-32c0-53.024 42.976-96 96-96 52.992 0 96 42.976 96 96v32h192v-32c0-53.024 43.008-96 96-96s96 42.976 96 96v32h64c35.328 0 64-28.64 64-64v-704c0-35.328-28.672-64-64-64zM864 576h-704v-544h704v544zM320 416h-96v96h96v-96zM320 256h-96v96h96v-96zM320 96h-96v96h96v-96zM480 416h-96v96h96v-96zM480 256h-96v96h96v-96zM480 96h-96v96h96v-96zM640 416h-96v96h96v-96zM640 256h-96v96h96v-96zM640 96h-96v96h96v-96zM800 416h-96v96h96v-96zM800 256h-96v96h96v-96zM800 96h-96v96h96v-96zM703.008 704c-34.816 0-63.008 28.224-63.008 63.008v65.984c0 34.816 28.192 63.008 63.008 63.008s63.008-28.192 63.008-63.008v-65.984c0-34.784-28.192-63.008-63.008-63.008zM319.008 704c-34.816 0-63.008 28.224-63.008 63.008v65.984c0 34.816 28.192 63.008 63.008 63.008s63.008-28.192 63.008-63.008v-65.984c0-34.784-28.224-63.008-63.008-63.008z" />
<glyph unicode="&#xeaae;" glyph-name="instagram" d="M1019.913 657.761c-0.623 45.356-9.294 88.505-24.645 128.334l0.86-2.535c-27.177 68.828-80.646 122.295-147.702 148.855l-1.771 0.619c-36.761 14.231-79.278 22.894-123.695 23.836l-0.402 0.007c-54.611 2.442-71.927 3.123-210.557 3.123s-156.399 0-210.613-3.123c-44.8-0.955-87.297-9.618-126.607-24.709l2.568 0.866c-68.84-27.159-122.314-80.634-148.855-147.702l-0.617-1.771c-14.265-36.748-22.914-79.257-23.78-123.672l-0.005-0.369c-2.442-54.669-3.179-71.983-3.179-210.613s0-156.342 3.179-210.613c0.852-42.464 8.856-84.359 23.786-124.154 27.203-68.815 80.688-122.263 147.757-148.798l1.772-0.619c36.628-14.782 79.041-24.024 123.418-25.529l0.623-0.017c54.669-2.442 71.983-3.179 210.613-3.179s156.399 0 210.613 3.179c44.809 0.909 87.332 9.556 126.658 24.651l-2.561-0.864c68.809 27.208 122.265 80.664 148.854 147.702l0.62 1.772c14.93 39.739 22.934 81.634 23.786 124.154 2.442 54.611 3.179 71.927 3.179 210.613-0.113 138.63-0.113 156.229-3.293 210.557zM511.659 186.749c-144.989 0-262.443 117.455-262.443 262.443s117.455 262.443 262.443 262.443c144.943 0 262.443-117.5 262.443-262.443s-117.5-262.443-262.443-262.443v0zM784.549 660.146c-0.017 0-0.037 0-0.057 0-33.767 0-61.14 27.373-61.14 61.14 0 0.020 0 0.040 0 0.060v-0.003c0 33.782 27.386 61.168 61.168 61.168s61.168-27.386 61.168-61.168v0c0-33.834-27.362-61.197-61.14-61.197zM682.137 449.192c0-94.152-76.326-170.478-170.478-170.478s-170.478 76.326-170.478 170.478c0 94.152 76.326 170.478 170.478 170.478s170.478-76.326 170.478-170.478z" />
<glyph unicode="&#xeaaf;" glyph-name="tiktok" d="M534.656 959.136c55.84 0.864 111.36 0.352 166.816 0.864 3.36-65.312 26.848-131.84 74.656-178.016 47.712-47.328 115.2-68.992 180.864-76.32v-171.808c-61.536 2.016-123.36 14.816-179.2 41.312-24.32 11.008-46.976 25.184-69.152 39.68-0.288-124.672 0.512-249.184-0.8-373.344-3.328-59.648-23.008-119.008-57.696-168.16-55.808-81.824-152.672-135.168-252.16-136.832-61.024-3.488-121.984 13.152-173.984 43.808-86.176 50.816-146.816 143.84-155.648 243.68-0.628 11.2-0.986 24.305-0.986 37.493 0 9.142 0.172 18.244 0.513 27.303l-0.039-1.308c7.68 81.184 47.84 158.848 110.176 211.68 70.656 61.536 169.632 90.848 262.304 73.504 0.864-63.2-1.664-126.336-1.664-189.536-42.336 13.696-91.808 9.856-128.8-15.84-26.769-17.815-47.094-43.453-57.886-73.624l-0.322-1.032c-8.832-21.632-6.304-45.664-5.792-68.64 10.144-70.016 77.472-128.864 149.344-122.496 47.648 0.512 93.312 28.16 118.144 68.64 8.032 14.176 17.024 28.672 17.504 45.344 4.192 76.32 2.528 152.32 3.040 228.64 0.352 172-0.512 343.52 0.8 514.976z" />
<glyph unicode="&#xeab0;" glyph-name="youtube" d="M512 842.24c-503.194 0-512-44.749-512-394.24s8.806-394.24 512-394.24 512 44.749 512 394.24-8.806 394.24-512 394.24zM676.096 430.899l-229.888-107.315c-20.122-9.318-36.608 1.126-36.608 23.347v202.138c0 22.17 16.486 32.666 36.608 23.347l229.888-107.315c20.122-9.421 20.122-24.781 0-34.202z" />
<glyph unicode="&#xeade;" glyph-name="photo_album" d="M256 128.667h512l-164 218-128-164-92 110zM256 768.667v-342l106 64 108-64v342h-214zM768 852.667q34 0 60-25t26-59v-684q0-34-26-59t-60-25h-512q-34 0-60 25t-26 59v684q0 34 26 59t60 25h512z" />
<glyph unicode="&#xeae1;" glyph-name="remove_red_eye" d="M512 554.667q52 0 90-38t38-90-38-90-90-38-90 38-38 90 38 90 90 38zM512 212.667q88 0 151 63t63 151-63 151-151 63-151-63-63-151 63-151 151-63zM512 746.667q158 0 286-88t184-232q-56-144-184-232t-286-88-286 88-184 232q56 144 184 232t286 88z" />
<glyph unicode="&#xeb00;" glyph-name="linked_camera" d="M682 682.667q36 0 61-25t25-61h56q0 58-42 100t-100 42v-56zM512 128.667q88 0 151 62t63 150-63 151-151 63-151-63-63-151 63-150 151-62zM726 554.667h212v-470q0-34-25-59t-59-25h-684q-34 0-59 25t-25 59v512q0 34 25 60t59 26h136l78 86h256v-128q36 0 61-25t25-61zM682 796.667v56q106 0 181-75t75-181h-56q0 82-59 141t-141 59zM376 340.667q0 58 40 98t96 40 96-40 40-98-40-97-96-39-96 39-40 97z" />
<glyph unicode="&#xeb01;" glyph-name="add_a_photo" d="M418 340.667q0 58 40 98t96 40q58 0 98-40t40-98q0-56-40-96t-98-40-97 39-39 97zM554 128.667q88 0 151 62t63 150-63 151-151 63-150-63-62-151 62-150 150-62zM256 512.667v128h128v128h298l78-86h136q34 0 60-26t26-60v-512q0-34-26-59t-60-25h-682q-34 0-60 25t-26 59v428h128zM128 768.667v128h86v-128h128v-86h-128v-128h-86v128h-128v86h128z" />
<glyph unicode="&#xeb04;" glyph-name="burst_mode" d="M470 212.667h426l-136 180-108-136-76 92zM938 724.667q18 0 31-12t13-30v-512q0-18-13-30t-31-12h-512q-18 0-30 12t-12 30v512q0 18 12 30t30 12h512zM214 724.667h84v-596h-84v596zM42 724.667h86v-596h-86v596z" />
<glyph unicode="&#xeb06;" glyph-name="add_photo_alternate" d="M214 128.667h512l-172 212-128-170-84 128zM682 468.667h128v-340q0-34-25-60t-59-26h-512q-34 0-60 26t-26 60v512q0 34 26 59t60 25h340v-128h128v-128zM810 640.667v-128h-84v128h-128v84h128v128h84v-128h128v-84h-128z" />
<glyph unicode="&#xeb08;" glyph-name="music_off" d="M598 640.667v-136l-86 84v222h256v-170h-170zM182 810.667l714-714-54-54-244 244v-74q0-70-51-120t-121-50-120 50-50 120 50 121 120 51q42 0 86-24v12l-384 384z" />
<glyph unicode="&#xeb28;" glyph-name="local_printshop" d="M768 810.667v-170h-512v170h512zM810 426.667q18 0 31 12t13 30-13 31-31 13-30-13-12-31 12-30 30-12zM682 128.667v212h-340v-212h340zM810 596.667q52 0 90-38t38-90v-256h-170v-170h-512v170h-170v256q0 52 38 90t90 38h596z" />
<glyph unicode="&#xeb29;" glyph-name="local_restaurant" d="M634 446.667l-62-62 294-294-60-60-294 294-294-294-60 60 416 416q-24 48-7 112t67 114q62 62 138 71t122-37 37-123-71-139q-50-50-114-66t-112 8zM346 368.667l-180 180q-50 50-50 120t50 120l300-298z" />
<glyph unicode="&#xeb2d;" glyph-name="map" d="M640 128.667v506l-256 90v-506zM874 810.667q22 0 22-22v-644q0-16-16-20l-240-82-256 90-228-88-6-2q-22 0-22 22v644q0 16 16 20l240 82 256-90 228 88z" />
<glyph unicode="&#xeb37;" glyph-name="near_me" d="M896 810.667l-322-768h-42l-112 292-292 112v42z" />
<glyph unicode="&#xeb53;" glyph-name="check" d="M384 248.667l452 452 60-60-512-512-238 238 60 60z" />
<glyph unicode="&#xeb56;" glyph-name="fullscreen" d="M598 724.667h212v-212h-84v128h-128v84zM726 212.667v128h84v-212h-212v84h128zM214 512.667v212h212v-84h-128v-128h-84zM298 340.667v-128h128v-84h-212v212h84z" />
<glyph unicode="&#xeb57;" glyph-name="fullscreen_exit" d="M682 596.667h128v-84h-212v212h84v-128zM598 128.667v212h212v-84h-128v-128h-84zM342 596.667v128h84v-212h-212v84h128zM214 256.667v84h212v-212h-84v128h-128z" />
<glyph unicode="&#xeb58;" glyph-name="menu1" d="M128 682.667h768v-86h-768v86zM128 384.667v84h768v-84h-768zM128 170.667v86h768v-86h-768z" />
<glyph unicode="&#xeb59;" glyph-name="keyboard_control" d="M512 512.667q34 0 60-26t26-60-26-60-60-26-60 26-26 60 26 60 60 26zM768 512.667q34 0 60-26t26-60-26-60-60-26-60 26-26 60 26 60 60 26zM256 512.667q34 0 60-26t26-60-26-60-60-26-60 26-26 60 26 60 60 26z" />
<glyph unicode="&#xeb64;" glyph-name="arrow_left" d="M598 640.667v-428l-214 214z" />
<glyph unicode="&#xeb65;" glyph-name="arrow_right" d="M426 212.667v428l214-214z" />
<glyph unicode="&#xeb6e;" glyph-name="event_note" d="M598 340.667v-84h-300v84h300zM810 128.667v468h-596v-468h596zM810 810.667q34 0 60-26t26-60v-596q0-34-26-60t-60-26h-596q-36 0-61 25t-25 61v596q0 34 25 60t61 26h42v86h86v-86h340v86h86v-86h42zM726 512.667v-86h-428v86h428z" />
<glyph unicode="&#xeba5;" glyph-name="notifications" d="M768 256.667l86-86v-42h-684v42l86 86v212q0 100 51 174t141 96v30q0 26 18 45t46 19 46-19 18-45v-30q90-22 141-96t51-174v-212zM512 0.667q-36 0-61 24t-25 60h172q0-34-26-59t-60-25z" />
<glyph unicode="&#xebab;" glyph-name="party_mode" d="M512 212.667q88 0 151 63t63 151q0 18-4 42h-90q8-28 8-42 0-52-38-90t-90-38h-170q66-86 170-86zM512 640.667q-88 0-151-63t-63-151q0-18 4-42h90q-8 28-8 42 0 52 38 90t90 38h170q-66 86-170 86zM854 768.667q34 0 59-26t25-60v-512q0-34-25-60t-59-26h-684q-34 0-59 26t-25 60v512q0 34 25 60t59 26h136l78 84h256l78-84h136z" />
<glyph unicode="&#xebac;" glyph-name="people_outline" d="M704 660.667q-34 0-60-25t-26-59 26-60 60-26 60 26 26 60-26 59-60 25zM704 426.667q-62 0-106 44t-44 106 44 105 106 43 106-43 44-105-44-106-106-44zM320 660.667q-34 0-60-25t-26-59 26-60 60-26 60 26 26 60-26 59-60 25zM320 426.667q-62 0-106 44t-44 106 44 105 106 43 106-43 44-105-44-106-106-44zM918 192.667v52q0 20-71 48t-143 28q-52 0-128-24 22-26 22-52v-52h320zM534 192.667v52q0 20-71 48t-143 28-143-28-71-48v-52h428zM704 384.667q86 0 182-39t96-101v-116h-940v116q0 62 96 101t182 39q94 0 192-44 98 44 192 44z" />
<glyph unicode="&#xebad;" glyph-name="person" d="M512 340.667q108 0 225-47t117-123v-86h-684v86q0 76 117 123t225 47zM512 426.667q-70 0-120 50t-50 120 50 121 120 51 120-51 50-121-50-120-120-50z" />
<glyph unicode="&#xebb1;" glyph-name="public" d="M764 196.667q90 96 90 230 0 106-59 192t-155 124v-18q0-34-26-59t-60-25h-84v-86q0-18-13-30t-31-12h-84v-86h256q18 0 30-12t12-30v-128h42q60 0 82-60zM470 88.667v82q-34 0-60 26t-26 60v42l-204 204q-10-40-10-76 0-130 87-226t213-112zM512 852.667q176 0 301-125t125-301-125-301-301-125-301 125-125 301 125 301 301 125z" />
<glyph unicode="&#xebb2;" glyph-name="school" d="M512 810.667l470-256v-342h-86v296l-384-210-470 256zM214 376.667l298-164 298 164v-172l-298-162-298 162v172z" />
<glyph unicode="&#xebbc;" glyph-name="check_box" d="M426 212.667l384 384-60 62-324-324-152 152-60-60zM810 810.667q36 0 61-25t25-61v-596q0-36-25-61t-61-25h-596q-36 0-61 25t-25 61v596q0 36 25 61t61 25h596z" />
<glyph unicode="&#xebbd;" glyph-name="check_box_outline_blank" d="M810 810.667q34 0 60-26t26-60v-596q0-34-26-60t-60-26h-596q-34 0-60 26t-26 60v596q0 34 26 60t60 26h596zM810 724.667h-596v-596h596v596z" />
<glyph unicode="&#xebbe;" glyph-name="radio_button_on" d="M512 84.667q140 0 241 101t101 241-101 241-241 101-241-101-101-241 101-241 241-101zM512 852.667q176 0 301-125t125-301-125-301-301-125-301 125-125 301 125 301 301 125zM512 640.667q88 0 151-63t63-151-63-151-151-63-151 63-63 151 63 151 151 63z" />
<glyph unicode="&#xebc7;" glyph-name="account_circle" d="M512 118.667q68 0 143 40t113 98q-2 56-90 94t-166 38-166-37-90-95q38-58 113-98t143-40zM512 724.667q-52 0-90-38t-38-90 38-90 90-38 90 38 38 90-38 90-90 38zM512 852.667q176 0 301-125t125-301-125-301-301-125-301 125-125 301 125 301 301 125z" />
<glyph unicode="&#xebce;" glyph-name="assignment" d="M726 554.667v86h-428v-86h428zM726 384.667v84h-428v-84h428zM598 212.667v86h-300v-86h300zM512 810.667q-18 0-30-12t-12-30 12-31 30-13 30 13 12 31-12 30-30 12zM810 810.667q34 0 60-26t26-60v-596q0-34-26-60t-60-26h-596q-34 0-60 26t-26 60v596q0 34 26 60t60 26h178q14 38 46 62t74 24 74-24 46-62h178z" />
<glyph unicode="&#xebcf;" glyph-name="assignment_ind" d="M768 128.667v60q0 58-88 95t-168 37-168-37-88-95v-60h512zM512 640.667q-52 0-90-38t-38-90 38-90 90-38 90 38 38 90-38 90-90 38zM512 810.667q-18 0-30-12t-12-30 12-31 30-13 30 13 12 31-12 30-30 12zM810 810.667q34 0 60-26t26-60v-596q0-34-26-60t-60-26h-596q-34 0-60 26t-26 60v596q0 34 26 60t60 26h178q14 38 46 62t74 24 74-24 46-62h178z" />
<glyph unicode="&#xebe0;" glyph-name="dashboard" d="M554 810.667h342v-256h-342v256zM554 42.667v426h342v-426h-342zM128 42.667v256h342v-256h-342zM128 384.667v426h342v-426h-342z" />
<glyph unicode="&#xebe1;" glyph-name="delete" d="M810 768.667v-86h-596v86h148l44 42h212l44-42h148zM256 128.667v512h512v-512q0-34-26-60t-60-26h-340q-34 0-60 26t-26 60z" />
<glyph unicode="&#xebe2;" glyph-name="description" d="M554 554.667h236l-236 234v-234zM682 340.667v86h-340v-86h340zM682 170.667v86h-340v-86h340zM598 852.667l256-256v-512q0-34-26-59t-60-25h-512q-34 0-60 25t-26 59l2 684q0 34 25 59t59 25h342z" />
<glyph unicode="&#xebe3;" glyph-name="dns" d="M298 554.667q34 0 60 26t26 60-26 59-60 25-59-25-25-59 25-60 59-26zM854 810.667q18 0 30-12t12-30v-256q0-18-12-31t-30-13h-684q-18 0-30 13t-12 31v256q0 18 12 30t30 12h684zM298 128.667q34 0 60 25t26 59-26 60-60 26-59-26-25-60 25-59 59-25zM854 384.667q18 0 30-13t12-31v-256q0-18-12-30t-30-12h-684q-18 0-30 12t-12 30v256q0 18 12 31t30 13h684z" />
<glyph unicode="&#xebe4;" glyph-name="done" d="M384 246.667l452 454 60-60-512-512-238 238 58 60z" />
<glyph unicode="&#xebe5;" glyph-name="done_all" d="M18 366.667l60 60 238-238-60-60zM948 700.667l62-60-512-512-240 238 62 60 178-178zM768 640.667l-270-272-60 60 270 272z" />
<glyph unicode="&#xebe6;" glyph-name="exit_to_app" d="M810 810.667q34 0 60-26t26-60v-596q0-34-26-60t-60-26h-596q-36 0-61 25t-25 61v170h86v-170h596v596h-596v-170h-86v170q0 36 25 61t61 25h596zM430 272.667l110 112h-412v84h412l-110 112 60 60 214-214-214-214z" />
<glyph unicode="&#xebe8;" glyph-name="extension" d="M874 468.667q44 0 76-31t32-75-32-75-76-31h-64v-172q0-34-25-59t-59-25h-162v64q0 48-34 81t-82 33-82-33-34-81v-64h-162q-34 0-59 25t-25 59v162h64q48 0 81 34t33 82-33 82-81 34h-64v162q0 34 25 59t59 25h172v64q0 44 31 76t75 32 75-32 31-76v-64h172q34 0 59-25t25-59v-172h64z" />
<glyph unicode="&#xebf4;" glyph-name="home" d="M426 84.667h-212v342h-128l426 384 426-384h-128v-342h-212v256h-172v-256z" />
<glyph unicode="&#xebf9;" glyph-name="info_outline" d="M470 554.667v86h84v-86h-84zM512 84.667q140 0 241 101t101 241-101 241-241 101-241-101-101-241 101-241 241-101zM512 852.667q176 0 301-125t125-301-125-301-301-125-301 125-125 301 125 301 301 125zM470 212.667v256h84v-256h-84z" />
<glyph unicode="&#xebfa;" glyph-name="input" d="M470 256.667v128h-428v84h428v128l170-170zM896 810.667q36 0 61-25t25-61v-598q0-34-26-59t-60-25h-768q-34 0-60 25t-26 59v172h86v-172h768v600h-768v-172h-86v170q0 34 26 60t60 26h768z" />
<glyph unicode="&#xebfe;" glyph-name="language" d="M698 340.667h144q12 56 12 86t-12 86h-144q6-42 6-86t-6-86zM622 104.667q50 16 104 61t82 91h-126q-20-80-60-152zM612 340.667q6 42 6 86t-6 86h-200q-6-42-6-86t6-86h200zM512 86.667q56 82 82 170h-164q26-88 82-170zM342 596.667q24 86 60 152-50-16-105-61t-81-91h126zM216 256.667q26-46 81-91t105-61q-40 72-60 152h-126zM182 340.667h144q-6 42-6 86t6 86h-144q-12-56-12-86t12-86zM512 766.667q-56-82-82-170h164q-26 88-82 170zM808 596.667q-28 46-82 91t-104 61q36-66 60-152h126zM512 852.667q176 0 301-125t125-301-125-301-301-125-301 125-125 301 125 301 301 125z" />
<glyph unicode="&#xebff;" glyph-name="launch" d="M598 810.667h298v-298h-86v152l-418-418-60 60 418 418h-152v86zM810 128.667v298h86v-298q0-34-26-60t-60-26h-596q-36 0-61 25t-25 61v596q0 36 25 61t61 25h298v-86h-298v-596h596z" />
<glyph unicode="&#xec0d;" glyph-name="perm_media" d="M298 298.667h598l-150 192-106-128-150 192zM938 768.667q34 0 60-26t26-60v-426q0-34-26-60t-60-26h-682q-34 0-60 26t-26 60l2 512q0 34 25 59t59 25h256l86-84h340zM86 682.667v-598h768v-84h-768q-34 0-60 25t-26 59v598h86z" />
<glyph unicode="&#xec12;" glyph-name="power_settings_new" d="M760 718.667q136-116 136-292 0-160-112-272t-272-112-272 112-112 272q0 72 40 158t96 134l60-60q-46-38-78-106t-32-126q0-124 87-211t211-87 211 87 87 211q0 58-32 126t-78 104zM554 810.667v-426h-84v426h84z" />
<glyph unicode="&#xec15;" glyph-name="search" d="M406 340.667q80 0 136 56t56 136-56 136-136 56-136-56-56-136 56-136 136-56zM662 340.667l212-212-64-64-212 212v34l-12 12q-76-66-180-66-116 0-197 80t-81 196 81 197 197 81 196-81 80-197q0-42-20-95t-46-85l12-12h34z" />
<glyph unicode="&#xec16;" glyph-name="settings" d="M512 276.667q62 0 106 44t44 106-44 106-106 44-106-44-44-106 44-106 106-44zM830 384.667l90-70q14-10 4-28l-86-148q-8-14-26-8l-106 42q-42-30-72-42l-16-112q-4-18-20-18h-172q-16 0-20 18l-16 112q-38 16-72 42l-106-42q-18-6-26 8l-86 148q-10 18 4 28l90 70q-2 14-2 42t2 42l-90 70q-14 10-4 28l86 148q8 14 26 8l106-42q42 30 72 42l16 112q4 18 20 18h172q16 0 20-18l16-112q38-16 72-42l106 42q18 6 26-8l86-148q10-18-4-28l-90-70q2-14 2-42t-2-42z" />
<glyph unicode="&#xec2d;" glyph-name="supervisor_account" d="M384 384.667q44 0 102-12-102-56-102-148v-96h-298v106q0 46 55 82t121 52 122 16zM704 340.667q74 0 154-32t80-84v-96h-468v96q0 52 80 84t154 32zM384 468.667q-52 0-90 38t-38 90 38 90 90 38 90-38 38-90-38-90-90-38zM704 426.667q-44 0-75 31t-31 75 31 76 75 32 75-32 31-76-31-75-75-31z" />
<glyph unicode="&#xec38;" glyph-name="today" d="M298 512.667h214v-214h-214v214zM810 128.667v468h-596v-468h596zM810 810.667q34 0 60-26t26-60v-596q0-34-26-60t-60-26h-596q-36 0-61 25t-25 61v596q0 34 25 60t61 26h42v86h86v-86h340v86h86v-86h42z" />
<glyph unicode="&#xec3d;" glyph-name="trending_neutral" d="M938 426.667l-170-170v128h-640v84h640v128z" />
<glyph unicode="&#xec3f;" glyph-name="verified_user" d="M426 212.667l342 342-60 60-282-280-110 110-60-60zM512 896.667l384-172v-256q0-178-110-325t-274-187q-164 40-274 187t-110 325v256z" />
<glyph unicode="&#xec45;" glyph-name="view_headline" d="M170 724.667h684v-84h-684v84zM170 468.667v86h684v-86h-684zM170 128.667v84h684v-84h-684zM170 298.667v86h684v-86h-684z" />
<glyph unicode="&#xec68;" glyph-name="date_range" d="M810 84.667v470h-596v-470h596zM810 768.667q34 0 60-26t26-60v-598q0-34-26-59t-60-25h-596q-36 0-61 24t-25 60v598q0 34 25 60t61 26h42v84h86v-84h340v84h86v-84h42zM726 468.667v-84h-86v84h86zM554 468.667v-84h-84v84h84zM384 468.667v-84h-86v84h86z" />
<glyph unicode="&#xec6b;" glyph-name="line_style" d="M128 768.667h768v-172h-768v172zM554 426.667v86h342v-86h-342zM128 426.667v86h342v-86h-342zM810 84.667v86h86v-86h-86zM640 84.667v86h86v-86h-86zM470 84.667v86h84v-86h-84zM298 84.667v86h86v-86h-86zM128 84.667v86h86v-86h-86zM682 256.667v84h214v-84h-214zM406 256.667v84h212v-84h-212zM128 256.667v84h214v-84h-214z" />
<glyph unicode="&#xec6c;" glyph-name="line_weight" d="M128 768.667h768v-172h-768v172zM128 384.667v128h768v-128h-768zM128 84.667v44h768v-44h-768zM128 212.667v86h768v-86h-768z" />
<glyph unicode="&#xec84;" glyph-name="offline_bolt" d="M490 84.667l208 416h-144v268l-212-416h148v-268zM512 852.667q176 0 301-125t125-301-125-301-301-125-301 125-125 301 125 301 301 125z" />
<glyph unicode="&#xec85;" glyph-name="swap_horizontal_circle" d="M384 192.667v106h170v86h-170v106l-150-150zM640 660.667v-106h-170v-86h170v-106l150 150zM938 426.667q0-176-125-301t-301-125-301 125-125 301 125 301 301 125 301-125 125-301z" />
<glyph unicode="&#xec86;" glyph-name="accessible_forward" d="M726 362.667q34 0 59-26t25-60v-234h-84v214h-214q-46 0-72 41t-6 83l78 174h-94l-28-66-82 24 28 76q22 52 80 52h222q48 0 74-40t6-82l-72-156h80zM598 212.667q0-88-63-150t-151-62-151 62-63 150 63 151 151 63v-86q-52 0-90-38t-38-90 38-90 90-38 90 38 38 90h86zM640 744.667q0 36 25 61t61 25 60-25 24-61-24-61-60-25-61 25-25 61z" />
<glyph unicode="&#xec87;" glyph-name="calendar_today" d="M854 42.667v554h-684v-554h684zM854 810.667q34 0 59-26t25-60v-682q0-34-25-60t-59-26h-684q-34 0-59 26t-25 60v682q0 34 25 60t59 26h44v86h84v-86h428v86h84v-86h44z" />
<glyph unicode="&#xec96;" glyph-name="drag_indicator" d="M640 256.667q34 0 60-26t26-60-26-60-60-26-60 26-26 60 26 60 60 26zM640 512.667q34 0 60-26t26-60-26-60-60-26-60 26-26 60 26 60 60 26zM640 596.667q-34 0-60 26t-26 60 26 60 60 26 60-26 26-60-26-60-60-26zM384 768.667q34 0 60-26t26-60-26-60-60-26-60 26-26 60 26 60 60 26zM384 512.667q34 0 60-26t26-60-26-60-60-26-60 26-26 60 26 60 60 26zM470 170.667q0-34-26-60t-60-26-60 26-26 60 26 60 60 26 60-26 26-60z" />
<glyph unicode="&#xec9b;" glyph-name="segment" d="M384 384.667v84h512v-84h-512zM128 682.667h768v-86h-768v86zM384 170.667v86h512v-86h-512z" />
<glyph unicode="&#xeca1;" glyph-name="twitter-x" d="M806.4 912h157.056l-343.040-393.088 403.584-534.912h-315.968l-247.488 324.48-283.2-324.48h-157.12l366.912 420.48-387.136 507.52h324.032l223.68-296.512 258.752 296.512zM751.36 78.208h87.040l-561.728 744.512h-93.312z" />
<glyph unicode="&#xeca2;" glyph-name="facebook" d="M388.309-50.816v340.48h-105.557v156.459h105.557v67.413c0 174.293 78.848 255.061 249.941 255.061 17.109 0 40.747-1.792 62.635-4.395 18.519-1.932 35.082-4.863 51.227-8.852l-2.544 0.532v-141.867c-8.078 0.805-17.757 1.358-27.529 1.531l-0.332 0.005c-8.839 0.245-19.242 0.385-29.677 0.385-0.562 0-1.124 0-1.686-0.001h0.089c-30.165 0-53.717-4.096-71.467-13.184-12.068-6.142-21.89-15.184-28.794-26.236l-0.176-0.303c-11.008-17.92-15.957-42.453-15.957-74.752v-55.339h167.211l-28.715-156.459h-138.496v-351.787c253.525 30.635 449.963 246.485 449.963 508.245 0 282.752-229.248 512-512 512s-512-229.248-512-512c0-240.128 165.291-441.6 388.309-496.939z" />
<glyph unicode="&#xeca3;" glyph-name="whatsapp-fill" d="M870.464 811.136c-91.123 91.943-217.447 148.867-357.067 148.867-0.626 0-1.252-0.001-1.878-0.003h0.096c-279.488 0-507.264-227.712-507.52-507.264 0-89.536 23.424-176.64 67.648-253.76l-71.744-262.976 269.056 70.528c70.065-38.857 153.638-61.737 242.553-61.76h0.263c279.552 0 507.264 227.712 507.52 507.52 0 0.144 0 0.314 0 0.485 0 140.050-56.957 266.798-148.971 358.342l-0.022 0.021zM511.616 30.656c-0.042 0-0.092 0-0.141 0-79.198 0-153.285 21.886-216.541 59.939l1.899-1.059-15.36 9.216-159.616-41.856 42.624 155.712-9.984 16.064c-40.436 63.381-64.449 140.648-64.449 223.523 0 0.28 0 0.561 0.001 0.841v-0.044c0 232.064 189.248 421.376 421.824 421.376 0.224 0 0.488 0.001 0.753 0.001 116.242 0 221.45-47.241 297.473-123.571l0.014-0.014c76.229-75.989 123.393-181.095 123.393-297.216 0-0.36 0-0.72-0.001-1.080v0.056c-0.256-232.896-189.504-421.888-421.888-421.888zM742.976 346.432c-12.608 6.336-74.88 36.992-86.592 41.344-11.648 4.16-20.16 6.336-28.48-6.336-8.512-12.608-32.832-41.344-40.128-49.6-7.296-8.512-14.848-9.472-27.52-3.2-12.608 6.4-53.504 19.712-101.888 63.040-37.76 33.6-63.040 75.2-70.592 87.808-7.296 12.672-0.704 19.456 5.632 25.792 5.568 5.632 12.608 14.848 18.944 22.144 6.4 7.296 8.512 12.672 12.672 21.12 4.16 8.576 2.176 15.872-0.96 22.208-3.2 6.336-28.48 68.864-39.168 94.080-10.24 24.896-20.672 21.44-28.48 21.76-7.296 0.448-15.808 0.448-24.32 0.448-13.493-0.346-25.514-6.368-33.813-15.758l-0.043-0.050c-11.648-12.672-44.224-43.328-44.224-105.856s45.44-122.624 51.84-131.136c6.272-8.512 89.216-136.448 216.512-191.488 30.080-13.12 53.76-20.864 72.256-26.752 30.4-9.728 57.856-8.256 79.744-5.12 24.32 3.712 74.944 30.72 85.632 60.352 10.496 29.696 10.496 55.040 7.296 60.352-3.136 5.376-11.648 8.512-24.32 14.848z" />
<glyph unicode="&#xeca4;" glyph-name="whatsapp" d="M946.004 722.444c-153.178 236.149-465.916 306.356-708.448 159.56-236.149-146.795-312.738-465.916-159.56-702.065l12.765-19.147-51.059-191.472 191.472 51.059 19.147-12.765c82.971-44.677 172.325-70.207 261.679-70.207 95.736 0 191.472 25.53 274.444 76.589 236.149 153.178 306.356 465.916 159.56 708.448zM811.973 230.998c-25.53-38.294-57.442-63.824-102.119-70.207-25.53 0-57.442-12.765-185.090 38.294-108.501 51.059-197.855 134.031-261.679 229.767-38.294 44.677-57.442 102.119-63.824 159.56 0 51.059 19.147 95.736 51.059 127.648 12.765 12.765 25.53 19.147 38.294 19.147h31.912c12.765 0 25.53 0 31.912-25.53 12.765-31.912 44.677-108.501 44.677-114.883 6.382-6.382 6.382-19.147 0-25.53 6.382-12.765 0-25.53-6.382-31.912s-12.765-19.147-19.147-25.53c-12.765-6.382-19.147-19.147-12.765-31.912 25.53-38.294 57.442-76.589 89.354-108.501 38.294-31.912 76.589-57.442 121.266-76.589 12.765-6.382 25.53-6.382 31.912 6.382s38.294 44.677 51.059 57.442c12.765 12.765 19.147 12.765 31.912 6.382l102.119-51.059c12.765-6.382 25.53-12.765 31.912-19.147 6.382-19.147 6.382-44.677-6.382-63.824z" />
<glyph unicode="&#xeca6;" glyph-name="fax" d="M832-64h-672c-35.36 0-64 28.672-64 64v768c0 35.36 28.64 64 64 64v-768c0-35.328 28.672-64 64-64h128c35.36 0 64 28.672 64 64v768h416c35.36 0 64-28.672 64-64v-768c0-35.328-28.64-64-64-64zM672 32h64v64h-64v-64zM672 128h64v64h-64v-64zM672 224h64v64h-64v-64zM672 320h64v64h-64v-64zM576 32h64v64h-64v-64zM576 128h64v64h-64v-64zM576 224h64v64h-64v-64zM576 320h64v64h-64v-64zM832 736c0 17.696-14.304 32-32 32h-288c-17.664 0-32-14.304-32-32v-128c0-17.664 14.336-32 32-32h288c17.696 0 32 14.336 32 32v128zM832 384h-64v-64h64v64zM832 288h-64v-64h64v64zM832 192h-64v-64h64v64zM832 96h-64v-64h64v64zM352 32h-128c-17.664 0-32 14.304-32 32v800c0 17.696 14.336 32 32 32h62.016v64h33.984v-64h32c17.664 0 32-14.304 32-32v-800c0-17.696-14.336-32-32-32z" />
<glyph unicode="&#xecdc;" glyph-name="drive_file_rename_outline" d="M470 84.667l170 172h256v-172h-426zM264 170.667l370 370-52 52-368-370v-52h50zM786 690.667q26-26 26-60t-26-60l-486-486h-172v174q480 478 486 484 26 26 60 26t60-26z" />
<glyph unicode="&#xece8;" glyph-name="logout" d="M170 724.667v-596h342v-86h-342q-34 0-59 26t-25 60v596q0 34 25 60t59 26h342v-86h-342zM726 640.667l212-214-212-214-60 62 110 110h-434v84h434l-110 112z" />
<glyph unicode="&#xecf3;" glyph-name="phone_enabled" d="M742 478.667l-94 94q-18 18-10 44 24 72 24 152 0 18 12 30t30 12h150q18 0 30-12t12-30q0-300-213-513t-513-213q-18 0-30 12t-12 30v150q0 18 12 30t30 12q80 0 152 24 24 10 44-10l94-94q186 96 282 282z" />
<glyph unicode="&#xed06;" glyph-name="tag" d="M598 340.667v172h-172v-172h172zM854 512.667h-172v-172h172v-84h-172v-172h-84v172h-172v-172h-84v172h-172v84h172v172h-172v84h172v172h84v-172h172v172h84v-172h172v-84z" />
<glyph unicode="&#xed28;" glyph-name="post_add" d="M298 298.667h342v-86h-342v86zM298 426.667h342v-86h-342v86zM298 554.667h342v-86h-342v86zM810 852.667v-128h128v-84h-128v-128h-84v128h-128v84h128v128h84zM726 118.667v308h84v-298q0-34-25-60t-59-26h-512q-34 0-60 26t-26 60v512q0 34 26 59t60 25h298v-84h-298v-522h512z" />
<glyph unicode="&#xed29;" glyph-name="people_alt" d="M384 384.667q64 0 140-18t139-60 63-94v-128h-684v128q0 52 63 94t139 60 140 18zM640 426.667q-26 0-56 10 56 66 56 160 0 38-16 86t-40 76q30 10 56 10 70 0 120-51t50-121-50-120-120-50zM214 596.667q0 70 50 121t120 51 120-51 50-121-50-120-120-50-120 50-50 120zM712 378.667q106-16 188-59t82-107v-128h-172v128q0 98-98 166z" />
<glyph unicode="&#xed2c;" glyph-name="emoji_objects" d="M534 452.667l78 76-30 32-70-70-70 70-30-32 78-76v-112h44v112zM598 212.667v44h-172v-44h172zM598 128.667v42h-172v-42h172zM512 810.667q124 0 211-87t87-211v-2q0-56-29-121t-71-101q-28-24-28-62v-98q0-34-25-60t-59-26h-12q-24-42-74-42t-74 42h-12q-34 0-59 26t-25 60v98q0 38-28 62-126 112-96 280 16 88 81 154t153 82q30 6 60 6z" />
<glyph unicode="&#xed5c;" glyph-name="badge" d="M768 362.667v64h-170v-64h170zM768 234.667v64h-170v-64h170zM554 554.667v214h-84v-214h84zM512 170.667v32q0 28-44 46t-84 18-84-18-44-46v-32h256zM384 426.667q-28 0-46-18t-18-46 18-46 46-18 46 18 18 46-18 46-46 18zM854 640.667q34 0 59-26t25-60v-470q0-34-25-59t-59-25h-684q-34 0-59 25t-25 59v470q0 34 25 60t59 26h214v128q0 34 26 59t60 25h84q34 0 60-25t26-59v-128h214z" />
<glyph unicode="&#xed68;" glyph-name="business_center" d="M598 640.667v84h-172v-84h172zM854 640.667q34 0 59-26t25-60v-128q0-34-25-60t-59-26h-256v86h-172v-86h-256q-36 0-60 25t-24 61v128q0 34 25 60t59 26h170v84l86 86h170l86-86v-84h172zM426 256.667h172v42h298v-170q0-36-25-61t-61-25h-596q-36 0-61 25t-25 61v170h298v-42z" />
<glyph unicode="&#xed74;" glyph-name="spa" d="M660 528.667q-84-46-148-114-64 68-148 114 6 78 50 173t100 151q134-134 146-324zM86 512.667q136 0 248-66t178-168q66 102 178 168t248 66q0-168-95-302t-247-188q-34-12-84-22-42 6-84 22-152 54-247 188t-95 302z" />
<glyph unicode="&#xed80;" glyph-name="agriculture" d="M832 426.667q30 0 57-9t49-23v202q0 36-25 61t-59 25h-270l-44 46 60 60-30 30-152-150 32-32 60 60 44-44v-98q0-36-25-61t-59-25h-24q30-34 48-77t18-93q0-10-1-21t-3-21h134q6 48 32 86t67 61 91 23zM832 384.667q-42 0-75-21t-54-54-21-75 21-75 54-54 75-21 75 21 54 54 21 75-21 75-54 54-75 21zM832 170.667q-26 0-45 19t-19 45 19 45 45 19 45-19 19-45-19-45-45-19zM170 554.667h214q0 36-25 61t-61 25h-128q-16 0-29-13t-13-31q0-16 13-29t29-13zM420 348.667l-8 20 40 16q-30 68-100 104l-16-38-20 8 18 38q-38 16-78 16-16 0-33-3t-31-9l14-38-20-8-16 40q-68-30-104-100l38-16-8-20-38 18q-16-38-16-78 0-16 3-33t9-31l38 14 8-20-40-16q30-68 100-104l16 38 20-8-18-38q38-16 78-16 16 0 33 3t31 9l-14 38 20 8 16-40q68 30 104 100l-38 16 8 20 38-18q16 38 16 78 0 16-3 33t-9 31zM306 180.667q-34-14-67-9t-60 25-41 52q-14 34-9 67t25 60 52 41q34 14 67 9t60-25 41-52q14-34 9-67t-25-60-52-41z" />
<glyph unicode="&#xed82;" glyph-name="analytics" d="M810 810.667h-596q-36 0-61-25t-25-61v-596q0-36 25-61t61-25h596q36 0 61 25t25 61v596q0 36-25 61t-61 25zM384 212.667h-86v214h86v-214zM554 212.667h-84v128h84v-128zM554 426.667h-84v86h84v-86zM726 212.667h-86v428h86v-428z" />
<glyph unicode="&#xed8a;" glyph-name="arrow_circle_down" d="M512 768.667q70 0 132-27t109-74 74-109 27-132-27-132-74-109-109-74-132-27-132 27-109 74-74 109-27 132 27 132 74 109 109 74 132 27zM512 852.667q-88 0-165-33t-136-92-92-136-33-165 33-165 92-136 136-92 165-33 165 33 136 92 92 136 33 165-33 165-92 136-136 92-165 33v0zM554 426.667v170h-84v-170h-128l170-170 170 170h-128z" />
<glyph unicode="&#xed8b;" glyph-name="arrow_circle_up" d="M512 84.667q-70 0-132 27t-109 74-74 109-27 132 27 132 74 109 109 74 132 27 132-27 109-74 74-109 27-132-27-132-74-109-109-74-132-27zM512 0.667q88 0 165 33t136 92 92 136 33 165-33 165-92 136-136 92-165 33-165-33-136-92-92-136-33-165 33-165 92-136 136-92 165-33v0zM470 426.667v-170h84v170h128l-170 170-170-170h128z" />
<glyph unicode="&#xed8c;" glyph-name="article" d="M810 810.667h-596q-36 0-61-25t-25-61v-596q0-36 25-61t61-25h596q36 0 61 25t25 61v596q0 36-25 61t-61 25zM598 212.667h-300v86h300v-86zM726 384.667h-428v84h428v-84zM726 554.667h-428v86h428v-86z" />
<glyph unicode="&#xed8d;" glyph-name="attach_email" d="M896 512.667v256q0 34-25 59t-61 25h-682q-36 0-60-25t-24-59l-2-512q0-36 25-61t61-25h470v214q0 34 17 63t46 47 65 18h170zM470 468.667l-342 214v86l342-214 340 214v-86zM896 340.667v-170q0-36-25-61t-61-25q-34 0-59 25t-25 61v192q0 8 6 15t14 7q10 0 16-7t6-15v-192h86v192q0 44-32 75t-76 31-75-31-31-75v-192q0-48 23-86t62-61 85-23q48 0 87 23t62 61 23 86v170h-86z" />
<glyph unicode="&#xed8e;" glyph-name="auto_awesome" d="M810 554.667l54 118 118 52-118 54-54 118-52-118-118-54 118-52zM490 532.667l-106 236-106-236-236-106 236-106 106-236 106 236 236 106zM810 298.667l-52-118-118-52 118-54 52-118 54 118 118 54-118 52z" />
<glyph unicode="&#xed8f;" glyph-name="auto_awesome_mosaic" d="M128 724.667v-596q0-36 25-61t61-25h256v768h-256q-36 0-61-25t-25-61zM810 810.667h-256v-342h342v256q0 36-25 61t-61 25zM554 42.667h256q36 0 61 25t25 61v256h-342v-342z" />
<glyph unicode="&#xed90;" glyph-name="auto_awesome_motion" d="M598 852.667h-428q-34 0-59-25t-25-59v-428h84v428h428v84zM768 682.667h-426q-36 0-61-25t-25-61v-426h86v426h426v86zM854 512.667h-342q-36 0-61-25t-25-61v-342q0-34 25-59t61-25h342q34 0 59 25t25 59v342q0 36-25 61t-59 25z" />
<glyph unicode="&#xed92;" glyph-name="auto_fix_high" d="M320 700.667l106-60-60 106 60 106-106-60-106 60 60-106-60-106zM832 280.667l-106 60 60-106-60-106 106 60 106-60-60 106 60 106zM938 852.667l-106-60-106 60 60-106-60-106 106 60 106-60-60 106zM614 626.667q-14 14-31 14t-31-14l-496-496q-14-14-14-31t14-31l98-98q14-14 31-14t31 14l496 496q14 14 14 31t-14 29l-98 100zM570 392.667l-92 92 104 104 92-92-104-104z" />
<glyph unicode="&#xed9e;" glyph-name="block_flipped" d="M938 426.667q0 88-33 165t-92 136-136 92-165 33-165-33-136-92-92-136-33-165 33-165 92-136 136-92 165-33 165 33 136 92 92 136 33 165zM244 636.667l478-478q-86-74-210-74-70 0-132 27t-109 74-74 109-27 132q0 124 74 210zM854 426.667q0-124-74-210l-478 478q86 74 210 74 70 0 132-27t109-74 74-109 27-132z" />
<glyph unicode="&#xeda0;" glyph-name="build_circle" d="M512 852.667q-88 0-165-33t-136-92-92-136-33-165 33-165 92-136 136-92 165-33 165 33 136 92 92 136 33 165-33 165-92 136-136 92-165 33zM722 278.667l-60-60q-8-8-16-8t-14 8l-146 144q-40-12-82-4t-72 40q-36 34-42 83t16 91l100-100 60 60-100 100q42 22 91 16t85-42q30-30 39-72t-5-82l146-146q6-6 6-14t-6-14z" />
<glyph unicode="&#xeda1;" glyph-name="calculate" d="M810 810.667h-596q-36 0-61-25t-25-61v-596q0-36 25-61t61-25h596q36 0 61 25t25 61v596q0 36-25 61t-61 25zM556 636.667l46 46 60-60 60 60 44-46-60-60 60-60-44-44-60 58-60-60-46 46 60 60zM266 608.667h214v-64h-214v64zM490 256.667h-84v-86h-64v86h-86v64h86v84h64v-84h84v-64zM768 202.667h-214v64h214v-64zM768 308.667h-214v64h214v-64z" />
<glyph unicode="&#xeda7;" glyph-name="circle" d="M512 852.667q-88 0-166-33t-136-91-91-136-33-166 33-166 91-136 136-91 166-33 166 33 136 91 91 136 33 166-33 166-91 136-136 91-166 33z" />
<glyph unicode="&#xedac;" glyph-name="construction" d="M588 290.667l90 92 256-256-90-92zM746 512.667q42 0 76 20t54 54 20 74q0 20-5 37t-13 31l-114-114-64 64 114 114q-14 8-31 13t-37 5q-40 0-74-20t-54-54-20-76q0-24 8-48l-78-80-76 76 30 30-60 60 90 92q-24 24-57 32t-66 0-57-32l-152-152 60-60h-120l-30-30 150-152 30 30v122l62-60 30 30 76-76-316-316 90-90 486 484q24-8 48-8z" />
<glyph unicode="&#xedb5;" glyph-name="drive_file_move" d="M854 682.667h-342l-86 86h-256q-34 0-59-25t-25-61v-512q0-36 25-61t59-25h684q34 0 59 25t25 61v426q0 36-25 61t-59 25zM598 170.667v128h-172v170h172v128l212-212z" />
<glyph unicode="&#xedb8;" glyph-name="east" d="M640 724.667l-60-60 196-196h-690v-84h690l-196-196 60-60 298 298z" />
<glyph unicode="&#xedc5;" glyph-name="fact_check" d="M854 810.667h-684q-34 0-59-25t-25-61v-596q0-36 25-61t59-25h684q34 0 59 25t25 61v596q0 36-25 61t-59 25zM426 212.667h-212v86h212v-86zM426 384.667h-212v84h212v-84zM426 554.667h-212v86h212v-86zM632 298.667l-120 122 60 60 60-62 136 136 60-60z" />
<glyph unicode="&#xedc6;" glyph-name="family_restroom" d="M682 768.667q0 34 25 59t61 25 61-25 25-59q0-36-25-61t-61-25-61 25-25 61zM854 0.667v256h106l-108 324q-10 28-32 44t-50 16h-4q-28 0-50-16t-32-44l-36-110q34-18 56-53t22-77v-340h128zM534 448.667q26 0 45 18t19 46q0 26-19 45t-45 19q-28 0-46-19t-18-45q0-28 18-46t46-18zM234 682.667q36 0 61 25t25 61q0 34-25 59t-61 25q-34 0-59-25t-25-59q0-36 25-61t59-25zM320 0.667v298h64v256q0 36-25 61t-61 25h-128q-34 0-59-25t-25-61v-256h64v-298h170zM598 0.667v170h42v170q0 26-19 45t-45 19h-86q-26 0-45-19t-19-45v-170h44v-170h128z" />
<glyph unicode="&#xedc8;" glyph-name="filter_alt" d="M182 698.667q26-32 58-74t65-84 60-78 44-57l17-21v-256q0-18 13-31t31-13h84q18 0 31 13t13 31v256l17 21t44 57 60 78 65 84 58 74q12 14 10 30t-14 28-30 12h-592q-18 0-30-12t-14-28 10-30z" />
<glyph unicode="&#xedcc;" glyph-name="forward_to_inbox" d="M854 768.667h-684q-34 0-59-25t-25-61v-512q0-36 25-61t59-25h384v86h-384v426l342-212 342 212v-212h84v298q0 36-25 61t-59 25zM512 468.667l-342 214h684zM810 298.667l172-170-172-172v128h-170v86h170v128z" />
<glyph unicode="&#xedd8;" glyph-name="horizontal_rule" d="M170 468.667h684v-84h-684v84z" />
<glyph unicode="&#xede0;" glyph-name="integration_instructions" d="M810 810.667h-178q-14 38-46 62t-74 24-74-24-46-62h-178q-10 0-18-2-24-4-42-24-12-12-20-26-6-16-6-34v-596q0-18 6-34 6-14 20-28 18-18 42-22 8-2 18-2h596q36 0 61 25t25 61v596q0 36-25 61t-61 25zM470 334.667l-60-62-154 154 154 154 60-62-94-92zM512 756.667q-14 0-23 10t-9 22q0 14 9 23t23 9 23-9 9-23q0-12-9-22t-23-10zM614 272.667l-60 62 94 92-94 92 60 62 154-154z" />
<glyph unicode="&#xede1;" glyph-name="ios_share" d="M682 724.667l-60-60-68 68v-476h-84v476l-68-68-60 60 170 172zM854 512.667v-470q0-36-25-61t-61-25h-512q-36 0-61 25t-25 61v470q0 34 25 59t61 25h128v-84h-128v-470h512v470h-128v84h128q36 0 61-25t25-59z" />
<glyph unicode="&#xede3;" glyph-name="local_fire_department" d="M628 186.667q-10-10-25-18t-27-12q-36-12-71-1t-59 31q-4 4-3 8t5 6q38 12 60 38t30 56q6 28-2 54t-12 54q-4 22-3 43t9 41q0 4 4 4t6-2q12-26 31-46t40-38 38-39 21-49q2-12 2-22 2-30-10-60t-34-48zM748 528.667q-24 22-50 40t-50 42q-48 48-63 112t5 130q4 10-3 17t-17 3q-24-10-45-24t-41-28q-62-52-98-123t-41-152 25-159q0-4 1-8t1-8q0-18-16-26t-32 6q-4 6-6 10-32 40-43 91t-3 101q2 12-9 18t-19-4q-40-52-58-115t-14-127q0-18 3-37t9-37q14-48 38-88 38-64 102-107t138-53q78-10 157 8t139 72q44 42 69 97t27 115-22 116q-2 4-3 7t-3 7q-18 34-40 62-8 12-17 22t-21 20z" />
<glyph unicode="&#xede4;" glyph-name="local_police" d="M512 896.667l-384-172v-256q0-88 29-171t81-153 122-119 152-69q82 20 152 69t122 119 81 153 29 171v256zM618 400.667l40-164-146 86-146-86 40 164-128 110 168 16 66 156 66-156 168-14z" />
<glyph unicode="&#xede5;" glyph-name="location_pin" d="M512 852.667v0q-62 0-116-23t-95-64-64-95-23-116q0-56 15-108t45-98q30-50 67-94t67-94q16-24 27-47t23-49q6-12 12-27t16-26 26-11v0q16 0 26 11t16 26 12 27q12 26 23 49t27 47q30 48 67 93t67 95q30 46 45 98t15 108q0 62-23 116t-64 95-95 64-116 23zM512 436.667q-44 0-75 32t-31 76 31 75 75 31 75-31 31-75-31-76-75-32z" />
<glyph unicode="&#xede7;" glyph-name="login" d="M470 640.667l-60-60 110-112h-434v-84h434l-110-112 60-60 212 214zM854 128.667h-342v-86h342q34 0 59 25t25 61v596q0 36-25 61t-59 25h-342v-86h342v-596z" />
<glyph unicode="&#xedeb;" glyph-name="mark_email_read" d="M512 128.667q0 62 23 116t64 95 95 64 116 23q36 0 68-8t60-22v286q0 36-25 61t-59 25h-684q-34 0-59-25t-25-61v-512q0-36 25-61t59-25h346q-4 24-4 44zM170 682.667l342-214 342 214v-86l-342-212-342 212v86zM740 0.667l-152 150 60 60 92-90 180 180 62-60z" />
<glyph unicode="&#xedec;" glyph-name="mark_email_unread" d="M938 554.667v-384q0-36-25-61t-59-25h-684q-34 0-59 25t-25 61v512q0 36 25 61t59 25h432q-2-10-3-21t-1-23q0-46 19-87t51-71l-156-98-342 214v-86l342-212 226 140q18-6 36-9t36-3q36 0 69 11t59 31zM682 724.667q0-34 18-63t47-47 63-18q36 0 65 18t46 47 17 63q0 36-17 65t-46 46-65 17q-34 0-63-17t-47-46-18-65z" />
<glyph unicode="&#xedf5;" glyph-name="monitor" d="M854 810.667h-684q-34 0-59-25t-25-61v-468q0-36 25-61t59-25h128l-42-42v-86h512v86l-42 42h128q34 0 59 25t25 61v468q0 36-25 61t-59 25zM854 256.667h-684v468h684v-468z" />
<glyph unicode="&#xedff;" glyph-name="night_shelter" d="M512 810.667l-342-256v-512h684v512zM416 404.667q22 0 38-15t16-37-16-38-38-16-38 16-16 38 16 37 38 15zM726 170.667h-44v64h-340v-64h-44v298h44v-192h148v150h150q36 0 61-25t25-61v-170z" />
<glyph unicode="&#xee00;" glyph-name="nightlight_round" d="M512 426.667q0 76 29 143t80 117 117 76q20 8 25 25t-4 34-29 21q-34 8-71 10t-77-4q-72-8-135-41t-112-84-80-115-39-136q-10-96 19-181t89-151 141-103 175-37q46 0 90 10 22 4 30 20t3 34-23 26q-70 28-121 79t-79 117-28 140v0z" />
<glyph unicode="&#xee09;" glyph-name="north" d="M214 554.667l60-60 196 196v-690h84v690l196-196 60 60-298 298z" />
<glyph unicode="&#xee0a;" glyph-name="north_east" d="M384 724.667v-84h282l-496-496 60-60 496 496v-282h84v426h-426z" />
<glyph unicode="&#xee0b;" glyph-name="north_west" d="M214 298.667h84v282l496-496 60 60-496 496h282v84h-426v-426z" />
<glyph unicode="&#xee10;" glyph-name="outbox" d="M810 810.667h-598q-34 0-59-25t-25-61v-596q0-36 25-61t59-25h598q36 0 61 25t25 61v596q0 36-25 61t-61 25zM810 298.667h-170q0-36-17-65t-46-46-65-17-65 17-46 46-17 65h-172v426h598v-426zM342 468.667h84v-128h172v128h84l-170 172z" />
<glyph unicode="&#xee1a;" glyph-name="person_add_alt" d="M554 596.667q0 48-23 87t-61 62-86 23-86-23-61-62-23-87q0-46 23-85t61-62 86-23 86 23 61 62 23 85zM470 596.667q0-34-25-59t-61-25-61 25-25 59q0 36 25 61t61 25 61-25 25-61zM42 170.667v-86h684v86q0 34-24 61t-63 48-85 34-91 20-79 7-79-7-91-20-85-34-63-48-24-61zM128 170.667q4 12 27 26t61 28 81 23 87 9 87-9 80-23 61-28 28-26h-512zM854 298.667v128h128v86h-128v128h-86v-128h-128v-86h128v-128h86z" />
<glyph unicode="&#xee1c;" glyph-name="person_remove" d="M598 596.667q0 48-23 87t-62 62-87 23q-46 0-85-23t-62-62-23-87q0-46 23-85t62-62 85-23q48 0 87 23t62 62 23 85zM726 512.667v-86h256v86h-256zM86 170.667v-86h682v86q0 34-24 61t-63 48-85 34-91 20-79 7-78-7-90-20-85-34-63-48-24-61z" />
<glyph unicode="&#xee20;" glyph-name="photo_camera_back" d="M854 724.667q34 0 59-25t25-59v-512q0-36-25-61t-59-25h-684q-34 0-59 25t-25 61v512q0 34 25 59t59 25h136l78 86h256l78-86h136zM854 128.667v512h-684v-512h684zM598 426.667l-128-158-86 116-128-172h512z" />
<glyph unicode="&#xee27;" glyph-name="privacy_tip" d="M512 896.667l-384-172v-256q0-88 29-171t81-153 122-119 152-69q82 20 152 69t122 119 81 153 29 171v256l-384 172zM470 640.667h84v-86h-84v86zM470 468.667h84v-256h-84v256z" />
<glyph unicode="&#xee28;" glyph-name="psychology" d="M554 572.667q-24 0-42-18t-18-42q0-26 18-44t42-18q26 0 44 18t18 44q0 24-18 42t-44 18zM554 810.667q-60 0-112-22t-93-61-65-90-28-111l-82-108q-8-12-2-23t20-11h64v-128q0-36 25-61t61-25h42v-128h298v200q76 36 124 108t48 162q0 62-24 116t-65 95-95 64-116 23zM682 512.667v-18l36-28q4-4 2-10l-34-60q-4-6-12-4l-42 18q-12-10-28-16l-6-46q-2-8-10-8h-68q-6 0-8 8l-6 46q-16 6-30 16l-42-18q-6-2-10 4l-34 60q-4 6 2 10l36 28q0 4-1 9t-1 9 1 8 1 8l-36 28q-6 4-2 12l34 58q4 6 10 4l44-18q14 12 28 18l6 44q2 8 8 8h68q8 0 10-8l6-44q14-6 28-18l42 18q8 2 12-4l34-58q4-8-2-12l-38-28q2-6 2-16z" />
<glyph unicode="&#xee2a;" glyph-name="push_pin" d="M682 554.667v214h44q16 0 29 12t13 30v0q0 18-13 30t-29 12h-428q-16 0-29-12t-13-30v0q0-18 13-30t29-12h44v-214q0-36-18-65t-47-46-63-17v0-86h254v-298l42-42 44 42v298h256v86q-34 0-63 17t-47 46-18 65z" />
<glyph unicode="&#xee2b;" glyph-name="qr_code" d="M128 468.667h342v342h-342v-342zM214 724.667h170v-170h-170v170zM128 42.667h342v342h-342v-342zM214 298.667h170v-170h-170v170zM554 810.667v-342h342v342h-342zM810 554.667h-170v170h170v-170zM810 128.667h86v-86h-86v86zM554 384.667h86v-86h-86v86zM640 298.667h86v-86h-86v86zM554 212.667h86v-84h-86v84zM640 128.667h86v-86h-86v86zM726 212.667h84v-84h-84v84zM726 384.667h84v-86h-84v86zM810 298.667h86v-86h-86v86z" />
<glyph unicode="&#xee2c;" glyph-name="qr_code_scanner" d="M406 660.667v-128h-128v128h128zM470 724.667h-256v-256h256v256zM406 320.667v-128h-128v128h128zM470 384.667h-256v-256h256v256zM746 660.667v-128h-128v128h128zM810 724.667h-256v-256h256v256zM554 384.667h64v-64h-64v64zM618 320.667h64v-64h-64v64zM682 384.667h64v-64h-64v64zM554 256.667h64v-64h-64v64zM618 192.667h64v-64h-64v64zM682 256.667h64v-64h-64v64zM746 320.667h64v-64h-64v64zM746 192.667h64v-64h-64v64zM938 640.667h-84v128h-128v84h212v-212zM938 0.667v212h-84v-128h-128v-84h212zM86 0.667h212v84h-128v128h-84v-212zM86 852.667v-212h84v128h128v84h-212z" />
<glyph unicode="&#xee2d;" glyph-name="quickreply" d="M938 768.667q0 34-25 59t-59 25h-684q-34 0-59-25t-25-59v-768l170 170h384v342h298v256zM960 256.667h-94l72 170h-212v-256h84v-214z" />
<glyph unicode="&#xee2e;" glyph-name="read_more" d="M554 640.667h384v-86h-384v86zM554 298.667h384v-86h-384v86zM682 468.667h256v-84h-256v84zM554 426.667l-212 214v-172h-256v-84h256v-172z" />
<glyph unicode="&#xee2f;" glyph-name="receipt_long" d="M832 788.667l-64 64-64-64-64 64-64-64-64 64-64-64-64 64-64-64-64 64v-596h-128v-128q0-36 17-65t46-46 65-17h512q36 0 65 17t46 46 17 65v724zM810 128.667q0-18-12-31t-30-13-30 13-12 31v128h-384v468h468v-596zM384 640.667h256v-86h-256v86zM682 640.667h86v-86h-86v86zM384 512.667h256v-86h-256v86zM682 512.667h86v-86h-86v86z" />
<glyph unicode="&#xee30;" glyph-name="request_quote" d="M598 852.667h-342q-36 0-60-25t-24-59l-2-684q0-34 25-59t61-25h512q36 0 61 25t25 59v512zM640 426.667h-170v-42h128q16 0 29-13t13-31v-128q0-16-13-29t-29-13h-44v-42h-84v42h-86v86h170v42h-128q-16 0-29 13t-13 29v128q0 18 13 31t29 13h44v42h84v-42h86v-86zM554 596.667v192l192-192h-192z" />
<glyph unicode="&#xee33;" glyph-name="room_preferences" d="M598 458.667v224h128v-170h84v256h-212v42h-384v-682h-86v-86h396q-26 36-40 79t-14 91q0 76 35 140t93 106zM426 468.667h86v-84h-86v84zM926 240.667l48 42-42 74-62-20q-20 16-46 26l-14 64h-84l-14-64q-26-10-46-26l-62 20-42-74 48-42q-4-26 0-54l-48-42 42-74 62 20q20-16 46-26l14-64h84l14 62q26 10 46 28l62-22 42 74-48 44q2 16 2 27t-2 27zM768 128.667q-36 0-61 25t-25 59q0 36 25 61t61 25 61-25 25-61q0-34-25-59t-61-25z" />
<glyph unicode="&#xee34;" glyph-name="rule" d="M706 468.667l-152 152 60 60 92-90 180 180 60-60zM470 640.667h-384v-86h384v86zM896 366.667l-60 60-110-110-112 110-60-60 112-110-112-112 60-60 112 112 110-112 60 60-110 112zM470 298.667h-384v-86h384v86z" />
<glyph unicode="&#xee3b;" glyph-name="sensor_door" d="M768 852.667h-512q-36 0-61-25t-25-59v-768h684v768q0 34-25 59t-61 25zM662 362.667q-28 0-46 19t-18 45 18 45 46 19q26 0 45-19t19-45-19-45-45-19z" />
<glyph unicode="&#xee3c;" glyph-name="sensor_window" d="M768 768.667v-684h-512v684h512zM768 852.667h-512q-36 0-61-25t-25-59v-684q0-34 25-59t61-25h512q36 0 61 25t25 59v684q0 34-25 59t-61 25v0zM298 128.667h428v256h-428v-256zM426 512.667h172v-44h128v256h-428v-256h128v44z" />
<glyph unicode="&#xee3e;" glyph-name="shopping_bag" d="M768 682.667h-86q0 48-23 86t-61 61-86 23-86-23-61-61-23-86h-86q-36 0-61-25t-25-61v-512q0-34 25-59t61-25h512q36 0 61 25t25 59v512q0 36-25 61t-61 25zM426 512.667q0-18-12-31t-30-13-30 13-12 31v84h84v-84zM512 768.667q36 0 61-25t25-61h-172q0 36 25 61t61 25zM682 512.667q0-18-12-31t-30-13-30 13-12 31v84h84v-84z" />
<glyph unicode="&#xee3f;" glyph-name="signal_cellular_0_bar" d="M86 0.667h852v852z" />
<glyph unicode="&#xee40;" glyph-name="signal_wifi_0_bar" d="M512 22.667l496 618q-6 4-31 22t-69 43-103 49-133 40-160 16-160-16-133-40-103-49-69-43-31-22l496-618z" />
<glyph unicode="&#xee41;" glyph-name="smart_button" d="M938 554.667v-256q0-36-25-61t-59-25h-44v86h44v256h-684v-256h256v-86h-256q-34 0-59 25t-25 61v256q0 36 25 61t59 25h684q34 0 59-25t25-61zM618 128.667l48 102 102 46-102 48-48 102-46-102-102-48 102-46zM726 340.667l26 60 58 26-58 26-26 60-28-60-58-26 58-26zM618 128.667l48 102 102 46-102 48-48 102-46-102-102-48 102-46zM726 340.667l26 60 58 26-58 26-26 60-28-60-58-26 58-26z" />
<glyph unicode="&#xee42;" glyph-name="snippet_folder" d="M678 490.667l68-70v-144h-128v214h60zM938 596.667v-426q0-36-25-61t-59-25h-684q-34 0-59 25t-25 61v512q0 36 25 61t59 25h256l86-86h342q34 0 59-25t25-61zM810 448.667l-106 106h-150v-342h256v236z" />
<glyph unicode="&#xee44;" glyph-name="source" d="M854 682.667h-342l-86 86h-256q-34 0-59-25t-25-61v-512q0-36 25-61t59-25h684q34 0 59 25t25 61v426q0 36-25 61t-59 25zM598 256.667h-342v84h342v-84zM768 426.667h-512v86h512v-86z" />
<glyph unicode="&#xee45;" glyph-name="south" d="M810 298.667l-60 60-196-196v690h-84v-690l-196 196-60-60 298-298z" />
<glyph unicode="&#xee46;" glyph-name="south_east" d="M810 554.667h-84v-282l-496 496-60-60 496-496h-282v-84h426v426z" />
<glyph unicode="&#xee47;" glyph-name="south_west" d="M640 128.667v84h-282l496 496-60 60-496-496v282h-84v-426h426z" />
<glyph unicode="&#xee4a;" glyph-name="star_outline1" d="M938 544.667l-306 26-120 282-120-282-306-26 232-202-70-300 264 160 264-160-70 300zM512 280.667l-160-96 42 182-142 124 188 16 72 172 72-172 188-16-142-124 42-182z" />
<glyph unicode="&#xee4b;" glyph-name="star_rate" d="M616 512.667l-104 340-104-340h-322l264-188-102-324 264 200 264-200-100 324 262 188h-322z" />
<glyph unicode="&#xee4c;" glyph-name="sticky_note_2" d="M810 810.667h-598q-34 0-59-25t-25-61v-596q0-36 25-61t61-25h426l256 256v426q0 36-25 61t-61 25zM298 596.667h428v-84h-428v84zM512 340.667h-214v86h214v-86zM598 106.667v234h234z" />
<glyph unicode="&#xee4d;" glyph-name="stop_circle" d="M342 256.667h340v340h-340v-340zM512 852.667q-88 0-165-33t-136-92-92-136-33-165 33-165 92-136 136-92 165-33 165 33 136 92 92 136 33 165-33 165-92 136-136 92-165 33v0z" />
<glyph unicode="&#xee50;" glyph-name="subtitles_off" d="M854 768.667h-562l340-342h222v-86h-136l210-210q10 20 10 40v512q0 36-25 61t-59 25zM44 772.667l52-50q-10-20-10-40v-512q0-36 25-61t59-25h562l126-126 62 60-816 816zM342 426.667v-86h-172v86h172zM598 220.667v-50h-428v86h392z" />
<glyph unicode="&#xee52;" glyph-name="support" d="M512 852.667q-88 0-165-33t-136-92-92-136-33-165 33-165 92-136 136-92 165-33 165 33 136 92 92 136 33 165-33 165-92 136-136 92-165 33zM830 548.667l-118-48q-16 44-49 77t-77 49l48 118q68-26 119-77t77-119zM512 298.667q-36 0-65 17t-46 46-17 65 17 65 46 46 65 17 65-17 46-46 17-65-17-65-46-46-65-17zM390 744.667l50-118q-44-16-78-49t-50-79l-118 50q26 68 77 119t119 77zM194 304.667l118 48q16-44 49-77t79-49l-50-118q-68 26-119 77t-77 119zM634 108.667l-48 118q44 16 77 49t49 79l118-50q-26-68-77-119t-119-77z" />
<glyph unicode="&#xee56;" glyph-name="table_rows" d="M938 640.667h-852v212h852v-212zM938 532.667h-852v-212h852v212zM938 212.667h-852v-212h852v212z" />
<glyph unicode="&#xee57;" glyph-name="table_view" d="M810 640.667h-426q-36 0-61-25t-25-61v-426q0-36 25-61t61-25h426q36 0 61 25t25 61v426q0 36-25 61t-61 25zM810 554.667v-86h-426v86h426zM554 298.667v86h86v-86h-86zM640 212.667v-84h-86v84h86zM470 298.667h-86v86h86v-86zM726 384.667h84v-86h-84v86zM384 212.667h86v-84h-86v84zM726 128.667v84h84v-84h-84zM256 212.667h-42q-36 0-61 25t-25 61v426q0 36 25 61t61 25h426q36 0 61-25t25-61v-42h-86v42h-426v-426h42v-86z" />
<glyph unicode="&#xee5a;" glyph-name="text_snippet" d="M870 580.667l-206 206q-24 24-60 24h-390q-36 0-61-25t-25-61v-596q0-36 25-61t61-25h596q36 0 61 25t25 61v390q0 36-26 62zM298 640.667h300v-86h-300v86zM726 212.667h-428v86h428v-86zM726 384.667h-428v84h428v-84z" />
<glyph unicode="&#xee5b;" glyph-name="tour" d="M896 768.667h-598v84h-84v-852h84v340h598l-86 214zM640 554.667q0-36-25-61t-61-25q-34 0-59 25t-25 61 25 61 59 25q36 0 61-25t25-61z" />
<glyph unicode="&#xee5e;" glyph-name="upgrade" d="M682 170.667v-86h-340v86h340zM470 598.667v-342h84v342h128l-170 170-170-170h128z" />
<glyph unicode="&#xee5f;" glyph-name="verified" d="M982 426.667l-104 120 14 156-154 36-80 136-146-62-146 62-80-136-154-34 14-158-104-120 104-120-14-156 154-36 80-136 146 62 146-62 80 136 154 36-14 156zM430 224.667l-162 164 64 62 98-100 250 252 64-64z" />
<glyph unicode="&#xee60;" glyph-name="video_settings" d="M128 682.667h768v-214h86v214q0 36-25 61t-61 25h-768q-36 0-61-25t-25-61v-512q0-36 25-61t61-25h384v86h-384v512zM640 426.667l-256 170v-340zM968 152.667q4 20 2 36l46 36q6 6 2 14l-44 76q-4 8-14 6l-54-22q-14 10-32 18l-8 58q-2 10-12 10h-88q-8 0-10-10l-8-58q-10-4-18-8t-14-10l-56 22q-8 4-12-4l-44-78q-4-8 2-12l46-38q-2-20 0-36l-46-36q-8-6-2-14l44-76q4-8 12-6l54 22q16-10 32-18l10-58q0-8 10-8h88q10 0 10 8l10 58 16 8t14 10l56-22q8-2 12 6l44 76q6 8-2 14zM810 106.667q-26 0-45 19t-19 45 19 45 45 19q28 0 46-19t18-45-18-45-46-19z" />
<glyph unicode="&#xee61;" glyph-name="view_sidebar" d="M682 84.667h-596v684h596v-684zM768 596.667h170v172h-170v-172zM768 84.667h170v172h-170v-172zM768 340.667h170v172h-170v-172z" />
<glyph unicode="&#xee63;" glyph-name="water_damage" d="M512 810.667l-426-384h128v-342h596v342h128zM512 256.667q-36 0-61 25t-25 59q0 18 13 46t30 57 30 49l13 20 13-20t30-49 30-57 13-46q0-34-25-59t-61-25z" />
<glyph unicode="&#xee64;" glyph-name="west" d="M384 128.667l60 60-196 196h690v84h-690l196 196-60 60-298-298z" />
<glyph unicode="&#xee6a;" glyph-name="wysiwyg" d="M810 810.667h-596q-36 0-61-25t-25-61v-596q0-36 25-61t61-25h596q36 0 61 25t25 61v596q0 36-25 61t-61 25zM810 128.667h-596v512h596v-512zM726 426.667h-428v86h428v-86zM554 256.667h-256v84h256v-84z" />
<glyph unicode="&#xee6d;" glyph-name="book_online" d="M570 84.667l24-84h-380q-36 0-61 25t-25 59v598q0 36 25 61t61 25h42v84h86v-84h340v84h86v-84h42q36 0 61-25t25-61v-380l-86 24v186h-596v-428h356zM926 30.667l-138 138 108 44-298 86 84-298 46 106 138-136zM512 212.667v214h-214v-214h214z" />
<glyph unicode="&#xee75;" glyph-name="reduce_capacity" d="M682 768.667q0 34 25 59t61 25 61-25 25-59q0-36-25-61t-61-25-61 25-25 61zM886 614.667q-26 12-56 19t-62 7q-42 0-82-12 40-38 40-92v-24h212v24q0 26-14 47t-38 31zM256 682.667q36 0 61 25t25 61q0 34-25 59t-61 25-61-25-25-59q0-36 25-61t61-25zM338 628.667q-40 12-82 12-32 0-62-7t-56-19q-24-10-38-31t-14-47v-24h212v24q0 54 40 92zM426 768.667q0 34 25 59t61 25 61-25 25-59q0-36-25-61t-61-25-61 25-25 61zM682 512.667h-340v24q0 26 14 47t38 31q26 12 56 19t62 7 62-7 56-19q24-10 38-31t14-47v-24zM640 256.667q0 34 25 59t61 25q34 0 59-25t25-59q0-36-25-61t-59-25q-36 0-61 25t-25 61zM896 0.667h-342v24q0 26 15 47t37 31q28 12 58 19t62 7 61-7 57-19q24-10 38-31t14-47v-24zM214 256.667q0 34 25 59t59 25q36 0 61-25t25-59q0-36-25-61t-61-25q-34 0-59 25t-25 61zM470 0.667h-342v24q0 26 14 47t38 31q28 12 57 19t61 7 62-7 58-19q22-10 37-31t15-47v-24zM544 384.667v84h-64v-84h-96l128-128 128 128h-96z" />
<glyph unicode="&#xee7a;" glyph-name="contact_page" d="M598 852.667h-342q-36 0-61-25t-25-59v-684q0-34 25-59t61-25h512q36 0 61 25t25 59v512zM512 512.667q36 0 61-25t25-61-25-61-61-25-61 25-25 61 25 61 61 25zM682 170.667h-340v24q0 26 14 48t38 32q26 12 56 18t62 6 62-6 56-18q24-10 38-32t14-48v-24z" />
<glyph unicode="&#xee7d;" glyph-name="groups" d="M512 394.667q52 0 98-11t82-27 56-48 20-68v-70h-512v68q0 38 20 70t56 48 82 27 98 11zM170 384.667q36 0 61 25t25 59q0 36-25 61t-61 25q-34 0-59-25t-25-61q0-34 25-59t59-25zM218 336.667q-10 2-22 3t-26 1q-32 0-61-6t-57-18q-24-10-38-32t-14-48v-66h192v68q0 52 26 98zM854 384.667q34 0 59 25t25 59q0 36-25 61t-59 25q-36 0-61-25t-25-61q0-34 25-59t61-25zM1024 236.667q0 26-14 48t-38 32q-28 12-57 18t-61 6q-14 0-26-1t-22-3q26-46 26-98v-68h192v66zM512 682.667q36 0 65-17t46-46 17-65-17-65-46-46-65-17-65 17-46 46-17 65 17 65 46 46 65 17z" />
<glyph unicode="&#xee81;" glyph-name="outbond" d="M512 852.667q-88 0-165-33t-136-92-92-136-33-165 33-165 92-136 136-92 165-33 165 33 136 92 92 136 33 165-33 165-92 136-136 92-165 33zM592 446.667l-212-212-60 60 212 212-90 90h240v-240z" />
<glyph unicode="&#xee8d;" glyph-name="qr_code_2" d="M640 42.667h-86v86h86v-86zM554 340.667h-84v-212h84v212zM896 426.667h-86v-170h86v170zM810 512.667h-84v-86h84v86zM298 426.667h-84v-86h84v86zM214 512.667h-86v-86h86v86zM512 724.667h86v86h-86v-86zM192 746.667v-128h128v128h-128zM384 554.667h-256v256h256v-256zM192 234.667v-128h128v128h-128zM384 42.667h-256v256h256v-256zM704 746.667v-128h128v128h-128zM896 554.667h-256v256h256v-256zM810 128.667v128h-170v-86h86v-128h170v86h-86zM726 426.667h-172v-86h172v86zM554 512.667h-256v-86h86v-86h86v86h84v86zM598 554.667v86h-86v84h-86v-170h172zM288 714.667h-64v-64h64v64zM288 202.667h-64v-64h64v64zM800 714.667h-64v-64h64v64z" />
<glyph unicode="&#xee8f;" glyph-name="vertical_distribute" d="M938 852.667v-84h-852v84h852zM298 490.667v-128h428v128h-428zM86 84.667v-84h852v84h-852z" />
<glyph unicode="&#xee90;" glyph-name="file-code-o" horiz-adv-x="878" d="M838.857 733.714c21.143-21.143 38.857-63.429 38.857-93.714v-658.286c0-30.286-24.571-54.857-54.857-54.857h-768c-30.286 0-54.857 24.571-54.857 54.857v914.286c0 30.286 24.571 54.857 54.857 54.857h512c30.286 0 72.571-17.714 93.714-38.857zM585.143 873.143v-214.857h214.857c-3.429 9.714-8.571 19.429-12.571 23.429l-178.857 178.857c-4 4-13.714 9.143-23.429 12.571zM804.571 0v585.143h-237.714c-30.286 0-54.857 24.571-54.857 54.857v237.714h-438.857v-877.714h731.429zM274.286 512c6.286 8 17.714 9.714 25.714 3.429l29.143-21.714c8-6.286 9.714-17.714 3.429-25.714l-104-138.857 104-138.857c6.286-8 4.571-19.429-3.429-25.714l-29.143-21.714c-8-6.286-19.429-4.571-25.714 3.429l-129.143 172c-4.571 6.286-4.571 15.429 0 21.714zM732.571 340c4.571-6.286 4.571-15.429 0-21.714l-129.143-172c-6.286-8-17.714-9.714-25.714-3.429l-29.143 21.714c-8 6.286-9.714 17.714-3.429 25.714l104 138.857-104 138.857c-6.286 8-4.571 19.429 3.429 25.714l29.143 21.714c8 6.286 19.429 4.571 25.714-3.429zM378.286 76.571c-10.286 1.714-16.571 11.429-14.857 21.143l78.857 474.857c1.714 10.286 11.429 16.571 21.143 14.857l36-5.714c10.286-1.714 16.571-11.429 14.857-21.143l-78.857-474.857c-1.714-10.286-11.429-16.571-21.143-14.857z" />
<glyph unicode="&#xee91;" glyph-name="file-video-o" horiz-adv-x="878" d="M838.857 733.714c21.143-21.143 38.857-63.429 38.857-93.714v-658.286c0-30.286-24.571-54.857-54.857-54.857h-768c-30.286 0-54.857 24.571-54.857 54.857v914.286c0 30.286 24.571 54.857 54.857 54.857h512c30.286 0 72.571-17.714 93.714-38.857zM585.143 873.143v-214.857h214.857c-3.429 9.714-8.571 19.429-12.571 23.429l-178.857 178.857c-4 4-13.714 9.143-23.429 12.571zM804.571 0v585.143h-237.714c-30.286 0-54.857 24.571-54.857 54.857v237.714h-438.857v-877.714h731.429zM438.857 512c40 0 73.143-33.143 73.143-73.143v-219.429c0-40-33.143-73.143-73.143-73.143h-219.429c-40 0-73.143 33.143-73.143 73.143v219.429c0 40 33.143 73.143 73.143 73.143h219.429zM720 510.857c6.857-2.857 11.429-9.714 11.429-17.143v-329.143c0-7.429-4.571-14.286-11.429-17.143-2.286-0.571-4.571-1.143-6.857-1.143-4.571 0-9.714 1.714-13.143 5.143l-151.429 152v51.429l151.429 152c3.429 3.429 8.571 5.143 13.143 5.143 2.286 0 4.571-0.571 6.857-1.143z" />
<glyph unicode="&#xee92;" glyph-name="file-zip-o" horiz-adv-x="878" d="M365.714 731.428v73.143h-73.143v-73.143h73.143zM438.857 658.286v73.143h-73.143v-73.143h73.143zM365.714 585.143v73.143h-73.143v-73.143h73.143zM438.857 512v73.143h-73.143v-73.143h73.143zM838.857 733.714c21.143-21.143 38.857-63.429 38.857-93.714v-658.286c0-30.286-24.571-54.857-54.857-54.857h-768c-30.286 0-54.857 24.571-54.857 54.857v914.286c0 30.286 24.571 54.857 54.857 54.857h512c30.286 0 72.571-17.714 93.714-38.857zM585.143 873.143v-214.857h214.857c-3.429 9.714-8.571 19.429-12.571 23.429l-178.857 178.857c-4 4-13.714 9.143-23.429 12.571zM804.571 0v585.143h-237.714c-30.286 0-54.857 24.571-54.857 54.857v237.714h-73.143v-73.143h-73.143v73.143h-292.571v-877.714h731.429zM446.286 412c48.571-164 61.143-199.429 61.143-199.429 2.857-9.714 4.571-19.429 4.571-29.714 0-63.429-61.714-109.714-146.286-109.714s-146.286 46.286-146.286 109.714c0 10.286 1.714 20 4.571 29.714 0 0 12 35.429 68.571 226.286v73.143h73.143v-73.143h45.143c16.571 0 30.857-10.857 35.429-26.857zM365.714 146.286c40.571 0 73.143 16.571 73.143 36.571s-32.571 36.571-73.143 36.571-73.143-16.571-73.143-36.571 32.571-36.571 73.143-36.571z" />
<glyph unicode="&#xee93;" glyph-name="file-image-o" horiz-adv-x="878" d="M838.857 733.714c21.143-21.143 38.857-63.429 38.857-93.714v-658.286c0-30.286-24.571-54.857-54.857-54.857h-768c-30.286 0-54.857 24.571-54.857 54.857v914.286c0 30.286 24.571 54.857 54.857 54.857h512c30.286 0 72.571-17.714 93.714-38.857zM585.143 873.143v-214.857h214.857c-3.429 9.714-8.571 19.429-12.571 23.429l-178.857 178.857c-4 4-13.714 9.143-23.429 12.571zM804.571 0v585.143h-237.714c-30.286 0-54.857 24.571-54.857 54.857v237.714h-438.857v-877.714h731.429zM731.429 256v-182.857h-585.143v109.714l109.714 109.714 73.143-73.143 219.429 219.429zM256 365.714c-60.571 0-109.714 49.143-109.714 109.714s49.143 109.714 109.714 109.714 109.714-49.143 109.714-109.714-49.143-109.714-109.714-109.714z" />
<glyph unicode="&#xee94;" glyph-name="file-powerpoint-o" horiz-adv-x="878" d="M838.857 733.714c21.143-21.143 38.857-63.429 38.857-93.714v-658.286c0-30.286-24.571-54.857-54.857-54.857h-768c-30.286 0-54.857 24.571-54.857 54.857v914.286c0 30.286 24.571 54.857 54.857 54.857h512c30.286 0 72.571-17.714 93.714-38.857zM585.143 873.143v-214.857h214.857c-3.429 9.714-8.571 19.429-12.571 23.429l-178.857 178.857c-4 4-13.714 9.143-23.429 12.571zM804.571 0v585.143h-237.714c-30.286 0-54.857 24.571-54.857 54.857v237.714h-438.857v-877.714h731.429zM237.714 133.714v-60.571h186.857v60.571h-53.143v95.429h78.286c24.571 0 46.857 1.143 67.429 8.571 51.429 17.714 83.429 70.857 83.429 133.143s-30.857 110.286-78.286 130.286c-21.714 8.571-48 10.857-74.286 10.857h-210.286v-61.143h52.571v-317.143h-52.571zM439.429 293.714h-68v153.143h68.571c20 0 35.429-3.429 47.429-10.286 20.571-12 32-35.429 32-65.714 0-32-11.429-56.571-35.429-68.571-12-5.714-26.857-8.571-44.571-8.571z" />
<glyph unicode="&#xee95;" glyph-name="file-excel-o" horiz-adv-x="878" d="M838.857 733.714c21.143-21.143 38.857-63.429 38.857-93.714v-658.286c0-30.286-24.571-54.857-54.857-54.857h-768c-30.286 0-54.857 24.571-54.857 54.857v914.286c0 30.286 24.571 54.857 54.857 54.857h512c30.286 0 72.571-17.714 93.714-38.857zM585.143 873.143v-214.857h214.857c-3.429 9.714-8.571 19.429-12.571 23.429l-178.857 178.857c-4 4-13.714 9.143-23.429 12.571zM804.571 0v585.143h-237.714c-30.286 0-54.857 24.571-54.857 54.857v237.714h-438.857v-877.714h731.429zM245.143 133.714v-60.571h160.571v60.571h-42.857l58.857 92c6.857 10.857 10.286 19.429 12 19.429h1.143c0.571-2.286 1.714-4 2.857-5.714 2.286-4.571 5.714-8 9.714-13.714l61.143-92h-43.429v-60.571h166.286v60.571h-38.857l-109.714 156 111.429 161.143h38.286v61.143h-159.429v-61.143h42.286l-58.857-90.857c-6.857-10.857-12-19.429-12-18.857h-1.143c-0.571 2.286-1.714 4-2.857 5.714-2.286 4-5.143 8-9.714 13.143l-60.571 90.857h43.429v61.143h-165.714v-61.143h38.857l108-155.429-110.857-161.714h-38.857z" />
<glyph unicode="&#xee96;" glyph-name="file-word-o" horiz-adv-x="878" d="M838.857 733.714c21.143-21.143 38.857-63.429 38.857-93.714v-658.286c0-30.286-24.571-54.857-54.857-54.857h-768c-30.286 0-54.857 24.571-54.857 54.857v914.286c0 30.286 24.571 54.857 54.857 54.857h512c30.286 0 72.571-17.714 93.714-38.857zM585.143 873.143v-214.857h214.857c-3.429 9.714-8.571 19.429-12.571 23.429l-178.857 178.857c-4 4-13.714 9.143-23.429 12.571zM804.571 0v585.143h-237.714c-30.286 0-54.857 24.571-54.857 54.857v237.714h-438.857v-877.714h731.429zM133.143 512v-61.143h40l93.714-377.714h90.857l73.143 277.143c2.857 8.571 4.571 17.143 5.714 26.286 0.571 4.571 1.143 9.143 1.143 13.714h2.286l1.714-13.714c1.714-8 2.286-17.143 5.143-26.286l73.143-277.143h90.857l93.714 377.714h40v61.143h-171.429v-61.143h51.429l-56.571-250.286c-2.286-9.143-3.429-18.857-4-26.286l-1.143-12h-2.286c0 3.429-1.143 8-1.714 12-1.714 7.429-2.857 17.143-5.143 26.286l-82.286 311.429h-65.143l-82.286-311.429c-2.286-9.143-2.857-18.857-4.571-26.286l-2.286-12h-2.286l-1.143 12c-0.571 7.429-1.714 17.143-4 26.286l-56.571 250.286h51.429v61.143h-171.429z" />
<glyph unicode="&#xee97;" glyph-name="file-pdf-o" horiz-adv-x="878" d="M838.857 733.714c21.143-21.143 38.857-63.429 38.857-93.714v-658.286c0-30.286-24.571-54.857-54.857-54.857h-768c-30.286 0-54.857 24.571-54.857 54.857v914.286c0 30.286 24.571 54.857 54.857 54.857h512c30.286 0 72.571-17.714 93.714-38.857zM585.143 873.143v-214.857h214.857c-3.429 9.714-8.571 19.429-12.571 23.429l-178.857 178.857c-4 4-13.714 9.143-23.429 12.571zM804.571 0v585.143h-237.714c-30.286 0-54.857 24.571-54.857 54.857v237.714h-438.857v-877.714h731.429zM510.857 338.857c14.286-11.429 30.286-21.714 48-32 24 2.857 46.286 4 66.857 4 38.286 0 86.857-4.571 101.143-28 4-5.714 7.429-16 1.143-29.714-0.571-0.571-1.143-1.714-1.714-2.286v-0.571c-1.714-10.286-10.286-21.714-40.571-21.714-36.571 0-92 16.571-140 41.714-79.429-8.571-162.857-26.286-224-47.429-58.857-100.571-104-149.714-138.286-149.714-5.714 0-10.857 1.143-16 4l-13.714 6.857c-1.714 0.571-2.286 1.714-3.429 2.857-2.857 2.857-5.143 9.143-3.429 20.571 5.714 26.286 36.571 70.286 107.429 107.429 4.571 2.857 10.286 1.143 13.143-3.429 0.571-0.571 1.143-1.714 1.143-2.286 17.714 29.143 38.286 66.286 61.143 112.571 25.714 51.429 45.714 101.714 59.429 149.714-18.286 62.286-24 126.286-13.714 164 4 14.286 12.571 22.857 24 22.857h12.571c8.571 0 15.429-2.857 20-8.571 6.857-8 8.571-20.571 5.143-38.857-0.571-1.714-1.143-3.429-2.286-4.571 0.571-1.714 0.571-2.857 0.571-4.571v-17.143c-0.571-36-1.143-70.286-8-109.714 20-60 49.714-108.571 83.429-136zM181.714 104c17.143 8 41.714 32.571 78.286 90.286-42.857-33.143-69.714-70.857-78.286-90.286zM409.143 629.714c-5.714-16-5.714-43.429-1.143-75.429 1.714 9.143 2.857 17.714 4 25.143 1.143 9.714 2.857 17.714 4 24.571 0.571 1.714 1.143 2.857 2.286 4.571-0.571 0.571-0.571 1.714-1.143 2.857-0.571 10.286-4 16.571-7.429 20.571 0-1.143-0.571-1.714-0.571-2.286zM338.286 252c50.286 20 106.286 36 162.286 46.286-5.714 4.571-11.429 8.571-16.571 13.143-28 24.571-53.143 58.857-72.571 100.571-10.857-34.857-26.857-72-47.429-112.571-8.571-16-17.143-32-25.714-47.429zM707.429 261.143c-2.857 2.857-17.714 13.714-80 13.714 28-10.286 53.714-16 70.857-16 5.143 0 8 0 10.286 0.571 0 0.571-0.571 1.143-1.143 1.714z" />
<glyph unicode="&#xee98;" glyph-name="file-text-o" horiz-adv-x="878" d="M838.857 733.714c21.143-21.143 38.857-63.429 38.857-93.714v-658.286c0-30.286-24.571-54.857-54.857-54.857h-768c-30.286 0-54.857 24.571-54.857 54.857v914.286c0 30.286 24.571 54.857 54.857 54.857h512c30.286 0 72.571-17.714 93.714-38.857zM585.143 873.143v-214.857h214.857c-3.429 9.714-8.571 19.429-12.571 23.429l-178.857 178.857c-4 4-13.714 9.143-23.429 12.571zM804.571 0v585.143h-237.714c-30.286 0-54.857 24.571-54.857 54.857v237.714h-438.857v-877.714h731.429zM219.429 493.714c0 10.286 8 18.286 18.286 18.286h402.286c10.286 0 18.286-8 18.286-18.286v-36.571c0-10.286-8-18.286-18.286-18.286h-402.286c-10.286 0-18.286 8-18.286 18.286v36.571zM640 365.714c10.286 0 18.286-8 18.286-18.286v-36.571c0-10.286-8-18.286-18.286-18.286h-402.286c-10.286 0-18.286 8-18.286 18.286v36.571c0 10.286 8 18.286 18.286 18.286h402.286zM640 219.428c10.286 0 18.286-8 18.286-18.286v-36.571c0-10.286-8-18.286-18.286-18.286h-402.286c-10.286 0-18.286 8-18.286 18.286v36.571c0 10.286 8 18.286 18.286 18.286h402.286z" />
<glyph unicode="&#xee99;" glyph-name="file-o" horiz-adv-x="878" d="M838.857 733.714c21.143-21.143 38.857-63.429 38.857-93.714v-658.286c0-30.286-24.571-54.857-54.857-54.857h-768c-30.286 0-54.857 24.571-54.857 54.857v914.286c0 30.286 24.571 54.857 54.857 54.857h512c30.286 0 72.571-17.714 93.714-38.857zM585.143 873.143v-214.857h214.857c-3.429 9.714-8.571 19.429-12.571 23.429l-178.857 178.857c-4 4-13.714 9.143-23.429 12.571zM804.571 0v585.143h-237.714c-30.286 0-54.857 24.571-54.857 54.857v237.714h-438.857v-877.714h731.429z" />
<glyph unicode="&#xeea0;" glyph-name="spinner" d="M384 832c0 70.692 57.308 128 128 128s128-57.308 128-128c0-70.692-57.308-128-128-128s-128 57.308-128 128zM655.53 719.53c0 70.692 57.308 128 128 128s128-57.308 128-128c0-70.692-57.308-128-128-128s-128 57.308-128 128zM832 448c0 35.346 28.654 64 64 64s64-28.654 64-64c0-35.346-28.654-64-64-64s-64 28.654-64 64zM719.53 176.47c0 35.346 28.654 64 64 64s64-28.654 64-64c0-35.346-28.654-64-64-64s-64 28.654-64 64zM448.002 64c0 0 0 0 0 0 0 35.346 28.654 64 64 64s64-28.654 64-64c0 0 0 0 0 0 0-35.346-28.654-64-64-64s-64 28.654-64 64zM176.472 176.47c0 0 0 0 0 0 0 35.346 28.654 64 64 64s64-28.654 64-64c0 0 0 0 0 0 0-35.346-28.654-64-64-64s-64 28.654-64 64zM144.472 719.53c0 0 0 0 0 0 0 53.019 42.981 96 96 96s96-42.981 96-96c0 0 0 0 0 0 0-53.019-42.981-96-96-96s-96 42.981-96 96zM56 448c0 39.765 32.235 72 72 72s72-32.235 72-72c0-39.765-32.235-72-72-72s-72 32.235-72 72z" />
<glyph unicode="&#xeea1;" glyph-name="link" d="M440.236 324.234c-13.31 0-26.616 5.076-36.77 15.23-95.134 95.136-95.134 249.934 0 345.070l192 192c46.088 46.086 107.36 71.466 172.534 71.466s126.448-25.38 172.536-71.464c95.132-95.136 95.132-249.934 0-345.070l-87.766-87.766c-20.308-20.308-53.23-20.308-73.54 0-20.306 20.306-20.306 53.232 0 73.54l87.766 87.766c54.584 54.586 54.584 143.404 0 197.99-26.442 26.442-61.6 41.004-98.996 41.004s-72.552-14.562-98.996-41.006l-192-191.998c-54.586-54.586-54.586-143.406 0-197.992 20.308-20.306 20.306-53.232 0-73.54-10.15-10.152-23.462-15.23-36.768-15.23zM256-52c-65.176 0-126.45 25.38-172.534 71.464-95.134 95.136-95.134 249.934 0 345.070l87.764 87.764c20.308 20.306 53.234 20.306 73.54 0 20.308-20.306 20.308-53.232 0-73.54l-87.764-87.764c-54.586-54.586-54.586-143.406 0-197.992 26.44-26.44 61.598-41.002 98.994-41.002s72.552 14.562 98.998 41.006l192 191.998c54.584 54.586 54.584 143.406 0 197.992-20.308 20.308-20.306 53.232 0 73.54 20.306 20.306 53.232 20.306 73.54-0.002 95.132-95.134 95.132-249.932 0.002-345.068l-192.002-192c-46.090-46.088-107.364-71.466-172.538-71.466z" />
<glyph unicode="&#xeea3;" glyph-name="file-pdf" d="M842.012 370.52c-13.648 13.446-43.914 20.566-89.972 21.172-31.178 0.344-68.702-2.402-108.17-7.928-17.674 10.198-35.892 21.294-50.188 34.658-38.462 35.916-70.568 85.772-90.576 140.594 1.304 5.12 2.414 9.62 3.448 14.212 0 0 21.666 123.060 15.932 164.666-0.792 5.706-1.276 7.362-2.808 11.796l-1.882 4.834c-5.894 13.592-17.448 27.994-35.564 27.208l-10.916 0.344c-20.202 0-36.664-10.332-40.986-25.774-13.138-48.434 0.418-120.892 24.98-214.738l-6.288-15.286c-17.588-42.876-39.63-86.060-59.078-124.158l-2.528-4.954c-20.46-40.040-39.026-74.028-55.856-102.822l-17.376-9.188c-1.264-0.668-31.044-16.418-38.028-20.644-59.256-35.38-98.524-75.542-105.038-107.416-2.072-10.17-0.53-23.186 10.014-29.212l16.806-8.458c7.292-3.652 14.978-5.502 22.854-5.502 42.206 0 91.202 52.572 158.698 170.366 77.93 25.37 166.652 46.458 244.412 58.090 59.258-33.368 132.142-56.544 178.142-56.544 8.168 0 15.212 0.78 20.932 2.294 8.822 2.336 16.258 7.368 20.792 14.194 8.926 13.432 10.734 31.932 8.312 50.876-0.72 5.622-5.21 12.574-10.068 17.32zM211.646 145.952c7.698 21.042 38.16 62.644 83.206 99.556 2.832 2.296 9.808 8.832 16.194 14.902-47.104-75.124-78.648-105.066-99.4-114.458zM478.434 760.314c13.566 0 21.284-34.194 21.924-66.254s-6.858-54.56-16.158-71.208c-7.702 24.648-11.426 63.5-11.426 88.904 0 0-0.566 48.558 5.66 48.558v0zM398.852 322.506c9.45 16.916 19.282 34.756 29.33 53.678 24.492 46.316 39.958 82.556 51.478 112.346 22.91-41.684 51.444-77.12 84.984-105.512 4.186-3.542 8.62-7.102 13.276-10.65-68.21-13.496-127.164-29.91-179.068-49.862v0zM828.902 326.348c-4.152-2.598-16.052-4.1-23.708-4.1-24.708 0-55.272 11.294-98.126 29.666 16.468 1.218 31.562 1.838 45.102 1.838 24.782 0 32.12 0.108 56.35-6.072 24.228-6.18 24.538-18.734 20.382-21.332v0zM917.806 730.924c-22.21 30.292-53.174 65.7-87.178 99.704s-69.412 64.964-99.704 87.178c-51.574 37.82-76.592 42.194-90.924 42.194h-496c-44.112 0-80-35.888-80-80v-864c0-44.112 35.886-80 80-80h736c44.112 0 80 35.888 80 80v624c0 14.332-4.372 39.35-42.194 90.924v0zM785.374 785.374c30.7-30.7 54.8-58.398 72.58-81.374h-153.954v153.946c22.982-17.78 50.678-41.878 81.374-72.572v0zM896 16c0-8.672-7.328-16-16-16h-736c-8.672 0-16 7.328-16 16v864c0 8.672 7.328 16 16 16 0 0 495.956 0.002 496 0v-224c0-17.672 14.324-32 32-32h224v-624z" />
<glyph unicode="&#xeea4;" glyph-name="file-word" d="M639.778 484.108h44.21l-51.012-226.178-66.324 318.010h-106.55l-77.114-318.010-57.816 318.010h-111.394l113.092-511.88h108.838l76.294 302.708 68.256-302.708h100.336l129.628 511.88h-170.446v-91.832zM917.806 730.924c-22.21 30.292-53.174 65.7-87.178 99.704s-69.412 64.964-99.704 87.178c-51.574 37.82-76.592 42.194-90.924 42.194h-496c-44.112 0-80-35.888-80-80v-864c0-44.112 35.886-80 80-80h736c44.112 0 80 35.888 80 80v624c0 14.332-4.372 39.35-42.194 90.924v0zM785.374 785.374c30.7-30.7 54.8-58.398 72.58-81.374h-153.954v153.946c22.982-17.78 50.678-41.878 81.374-72.572v0zM896 16c0-8.672-7.328-16-16-16h-736c-8.672 0-16 7.328-16 16v864c0 8.672 7.328 16 16 16 0 0 495.956 0.002 496 0v-224c0-17.672 14.324-32 32-32h224v-624z" />
</font>
</defs>
</svg>
